↑↓torrent.by
Поиск
Логин:  Регистрация
Пароль:

Спринтер / Seupeurinteo (2022) WEB-DL 1080p | D

download Скачать торрент-файл   magnet Магнитная ссылка Размер: 3.44 GB Добавлен: 2024-07-05 11:00
Пиры будут получены из сети DHT
Последний сидер был замечен 2024-07-05 11:00
Информация о фильме Название: Спринтер Оригинальное название: Seupeurinteo Год выпуска: 2022 Жанр: драма, спорт Выпущено: Корея Южная Режиссер: Чхве Сын-ён В ролях: Пак Сон-иль, Кон Мин-джон, Сон Док-хо, Чон Щин-хван Описание: История трёх бегунов. Первый чемпион не оставляет мечты побить свой рекорд, чтобы уйти на пике карьеры. Другой спортсмен бьётся за первую золотую медаль, его обуревают страсти, которые могут помешать одержать победу. Третий — школьный спринтер, который очень надеется пробиться в национальную сборную. Одно соревнование, три спортсмена и три разные судьбы. Продолжительность: 01:26:25 Перевод: Дублированный (Moygolos) Субтитры: Отсутствуют Файл Формат: MKV Качество: WEB-DL 1080p Видео: AVC/H.264, 1920x800, ~5000 Kbps Аудио 1: AC3, 6 ch, 384 Kbps - Русский (DUB) Аудио 2: E-AC3, 6 ch, 384 Kbps - Русский (DUB) Релиз от: karfagen1975
[+] MediaInfo:General Unique ID : 216253982872825684119013431033522024227 (0xA2B1008AFCBFE7A6C995F9DB6A07EF23) Complete name : Seupeurinteo.2022.WEB-DL.1080p.mkv Format : Matroska Format version : Version 4 File size : 3.44 GiB Duration : 1 h 26 min Overall bit rate : 5 697 kb/s Encoded date : UTC 2024-07-04 07:50:12 Writing application : mkvmerge v75.0.0 ('Goliath') 64-bit Writing library : libebml v1.4.4 + libmatroska v1.7.1 Video ID : 1 Format : AVC Format/Info : Advanced Video Codec Format profile : High@L4 Format settings : CABAC / 3 Ref Frames Format settings, CABAC : Yes Format settings, Reference frames : 3 frames Codec ID : V_MPEG4/ISO/AVC Duration : 1 h 26 min Bit rate : 5 000 kb/s Width : 1 920 pixels Height : 800 pixels Display aspect ratio : 2.40:1 Frame rate mode : Constant Frame rate : 24.000 FPS Color space : YUV Chroma subsampling : 4:2:0 Bit depth : 8 bits Scan type : Progressive Bits/(Pixel*Frame) : 0.136 Stream size : 2.97 GiB (86%) Title : Спринтер (2022) WEB-DL 1080p Writing library : x264 core 164 r3095 baee400 Encoding settings : cabac=1 / ref=4 / deblock=1:-1:-1 / analyse=0x3:0x133 / me=umh / subme=9 / psy=1 / psy_rd=0.40:1.00 / mixed_ref=1 / me_range=24 / chroma_me=1 / trellis=0 / 8x8dct=1 / cqm=0 / deadzone=21,11 / fast_pskip=1 / chroma_qp_offset=-2 / threads=3 / lookahead_threads=1 / sliced_threads=0 / nr=0 / decimate=1 / interlaced=0 / bluray_compat=0 / stitchable=1 / constrained_intra=0 / bframes=8 / b_pyramid=1 / b_adapt=0 / b_bias=0 / direct=3 / weightb=1 / open_gop=0 / weightp=2 / keyint=72 / keyint_min=37 / scenecut=0 / intra_refresh=0 / rc_lookahead=40 / rc=2pass / mbtree=1 / bitrate=5000 / ratetol=1.0 / qcomp=0.80 / qpmin=1 / qpmax=69 / qpstep=4 / cplxblur=20.0 / qblur=0.5 / vbv_maxrate=7500 / vbv_bufsize=10000 / nal_hrd=none / filler=0 / ip_ratio=1.40 / aq=1:1.00 Language : Korean Default : Yes Forced : No Color range : Limited Color primaries : BT.709 Transfer characteristics : BT.709 Matrix coefficients : BT.709 Audio #1 ID : 2 Format : AC-3 Format/Info : Audio Coding 3 Commercial name : Dolby Digital Codec ID : A_AC3 Duration : 1 h 26 min Bit rate mode : Constant Bit rate : 384 kb/s Channel(s) : 6 channels Channel layout : L R C LFE Ls Rs Sampling rate : 48.0 kHz Frame rate : 31.250 FPS (1536 SPF) Compression mode : Lossy Stream size : 237 MiB (7%) Title : DUB (Moygolos) Language : Russian Service kind : Complete Main Default : No Forced : No Audio #2 ID : 3 Format : E-AC-3 Format/Info : Enhanced AC-3 Commercial name : Dolby Digital Plus Codec ID : A_EAC3 Duration : 1 h 26 min Bit rate mode : Constant Bit rate : 384 kb/s Channel(s) : 6 channels Channel layout : L R C LFE Ls Rs Sampling rate : 48.0 kHz Frame rate : 31.250 FPS (1536 SPF) Compression mode : Lossy Stream size : 237 MiB (7%) Title : DUB (Moygolos) Language : Russian Service kind : Complete Main Default : No Forced : No
[+] Скриншоты
[+] Дополнительные скриншоты:

Всего файлов в раздаче: 1 
Seupeurinteo.2022.WEB-DL.1080p.mkv3.44 GB

Комментарии


Зарегистрируйтесь чтобы добавить комментарий
Торрент клиент
byTorrent - программа для загрузки торрент-файлов.

Скачать byTorrent.exe (1,5 МБ)

Скачать byTorrent.zip (0,6 МБ)

Поддержи torrent.by
российских рублей
(300 российских рублей это 4$)

Обратная связь rss

End game ©