↑↓torrent.by
Поиск
Логин:  Регистрация
Пароль:

Месть / Рождественская песнь / Keuriseumaseu kaereol / Christmas Carol (2022) WEB-DL 1080p | D, P

download Скачать торрент-файл   magnet Магнитная ссылка Размер: 6.28 GB Добавлен: 2024-07-05 11:00
Пиры будут получены из сети DHT
Последний сидер был замечен 2024-07-05 20:53
Информация о фильме Название: Месть / Рождественская песнь Оригинальное название: Keuriseumaseu kaereol / Christmas Carol Год выхода: 2022 Жанр: триллер, криминал Режиссер: Ким Сон-су В ролях: Чинён, Ким Ён-мин, Хо Дон-вон, Ким Дон-хви О фильме: В канун Рождества брата-близнеца Чу Джу-у находят мёртвым в резервуаре для воды. Смерть представляют как несчастный случай, но парень уверен, что это убийство. Он выходит на след бандитов и планирует расправу, но они уже отбывают заключение в колонии для несовершеннолетних. Чу остаётся только самому попасть в тюрьму, где он сможет добраться до убийц и отомстить. Страна: Корея Южная Студия: Finecut Продолжительность: 02:10:43 Перевод 1: Профессиональный (дублированный) Студия Позитив Перевод 2: Профессиональный (многоголосый закадровый) TVShows Амазон немного "сплющен" по вертикале на несколько пикселей, как и почти все вебки сейчас с него, но лучше качеством, чем все остальные. В сцены насилия, не прошедшие цензуру в русской версии в дубляже и русских субтитрах вставлен перевод TVShows. Файл Качество: WEB-DL 1080p (Amazon) Видео: 1920x800 at 23.976 fps, MPEG-4 AVC, ~5343 kbps avg Аудио 1: 48 kHz, E-AC3, 3/2 (L,C,R,l,r) + LFE ch, ~448 kbps avg | Позитив Аудио 2: 48 kHz, AC3, 3/2 (L,C,R,l,r) + LFE ch, ~448 kbps avg | TVShows Аудио 3: 48 kHz, E-AC3, 3/2 (L,C,R,l,r) + LFE ch, ~640 kbps avg | Korean Субтитры: русские Семпл
[+] Скриншоты
[+] MediaInfoОбщее Уникальный идентификатор : 203765559071186156876675227429194066113 (0x994BD1B61BB1E90074621DB8796668C1) Полное имя : D:torrentsChristmas.Carol.2022.1080p.AMZN.WEB-DL.DDP5.1.H.264-Wendy_Kyle.mkv Формат : Matroska Версия формата : Version 4 Размер файла : 6,28 Гбайт Продолжительность : 2 ч. 10 мин. Общий битрейт : 6 881 Кбит/сек Частота кадров : 23,976 кадра/сек Дата кодирования : 2024-07-04 23:00:25 UTC Программа кодирования : mkvmerge v85.0 ('Shame For You') 64-bit Библиотека кодирования : libebml v1.4.5 + libmatroska v1.7.1 Видео Идентификатор : 1 Формат : AVC Формат/Информация : Advanced Video Codec Профиль формата : High@L4 Настройки формата : CABAC / 4 Ref Frames Параметр CABAC формата : Да Параметр RefFrames формата : 4 кадра Идентификатор кодека : V_MPEG4/ISO/AVC Продолжительность : 2 ч. 10 мин. Вид битрейта : Постоянный Битрейт : 5 343 Кбит/сек Номинальный битрейт : 10 000 Кбит/сек Ширина : 1 920 пикселей Высота : 800 пикселей Соотношение сторон дисплея : 2,40:1 Режим частоты кадров : Постоянный Частота кадров : 23,976 (24000/1001) кадра/сек Цветовое пространство : YUV Цветовая субдискретизация : 4:2:0 Битовая глубина : 8 бит Тип развёртки : Прогрессивная Бит/(Пиксели*Кадры) : 0.145 Размер потока : 4,88 Гбайт (78%) По умолчанию : Да Принудительно : Нет Цветовой диапазон : Limited Основные цвета : BT.709 Характеристики трансфера : BT.709 Коэффициенты матрицы : BT.709 Аудио #1 Идентификатор : 2 Формат : E-AC-3 Формат/Информация : Enhanced AC-3 Коммерческое название : Dolby Digital Plus Идентификатор кодека : A_EAC3 Продолжительность : 2 ч. 10 мин. Вид битрейта : Постоянный Битрейт : 448 Кбит/сек Канал(-ы) : 6 каналов Расположение каналов : L R C LFE Ls Rs Частота дискретизации : 48,0 КГц Частота кадров : 31,250 кадров/сек (1536 SPF) Метод сжатия : С потерями Размер потока : 419 Мбайт (7%) Заголовок : Dub Язык : Русский Вид сервиса : Complete Main По умолчанию : Да Принудительно : Нет Нормализация звука речи : -23 dB compr : -0.28 dB dmixmod : Lo/Ro ltrtcmixlev : -3.0 dB ltrtsurmixlev : -3.0 dB lorocmixlev : -3.0 dB lorosurmixlev : -3.0 dB dialnorm_Average : -23 dB dialnorm_Minimum : -23 dB dialnorm_Maximum : -23 dB Аудио #2 Идентификатор : 3 Формат : AC-3 Формат/Информация : Audio Coding 3 Коммерческое название : Dolby Digital Идентификатор кодека : A_AC3 Продолжительность : 2 ч. 10 мин. Вид битрейта : Постоянный Битрейт : 448 Кбит/сек Канал(-ы) : 6 каналов Расположение каналов : L R C LFE Ls Rs Частота дискретизации : 48,0 КГц Частота кадров : 31,250 кадров/сек (1536 SPF) Метод сжатия : С потерями Размер потока : 419 Мбайт (7%) Заголовок : MVO Язык : Русский Вид сервиса : Complete Main По умолчанию : Нет Принудительно : Нет Нормализация звука речи : -31 dB cmixlev : -4.5 dB surmixlev : -6 dB dialnorm_Average : -31 dB dialnorm_Minimum : -31 dB dialnorm_Maximum : -31 dB Аудио #3 Идентификатор : 4 Формат : E-AC-3 Формат/Информация : Enhanced AC-3 Коммерческое название : Dolby Digital Plus Идентификатор кодека : A_EAC3 Продолжительность : 2 ч. 10 мин. Вид битрейта : Постоянный Битрейт : 640 Кбит/сек Канал(-ы) : 6 каналов Расположение каналов : L R C LFE Ls Rs Частота дискретизации : 48,0 КГц Частота кадров : 31,250 кадров/сек (1536 SPF) Метод сжатия : С потерями Размер потока : 598 Мбайт (9%) Заголовок : Korean Язык : Корейский Вид сервиса : Complete Main По умолчанию : Нет Принудительно : Нет Нормализация звука речи : -31 dB compr : -0.28 dB dialnorm_Average : -31 dB dialnorm_Minimum : -31 dB dialnorm_Maximum : -31 dB Текст Идентификатор : 5 Формат : UTF-8 Идентификатор кодека : S_TEXT/UTF8 Идентификатор кодека/Информация : UTF-8 Plain Text Продолжительность : 2 ч. 5 мин. Битрейт : 65 бит/сек Частота кадров : 0,164 кадр/сек Число элементов : 1233 Размер потока : 60,2 КиБ (0%) Заголовок : Russian Язык : Русский По умолчанию : Нет Принудительно : Нет
[+] Сравнение с другими вебкамиOKKO ~ Кинопоиск HD ~ Amazon ~ Neflix
Релиз от: by Kyle

Всего файлов в раздаче: 1 
Christmas.Carol.2022.1080p.AMZN.WEB-DL.DDP5.1.H.264-Wendy_Kyle.mkv6.28 GB

Похожие раздачи по запросу - Месть
2024-07-18 magnet Кровная месть / The Hard Hit (2023) WEB-DLRip-AVC | L | RGB 1.46 GB ↑ 20 ↓ 1
2024-07-18 magnet Кровная месть / The Hard Hit (2023) WEB-DL 1080p | L | RGB 3.99 GB ↑ 9 ↓ 1
2024-07-16 magnet Фридрих Незнанский - Марш Турецкого, Месть в конверте (2024) МР3 522.31 MB ↑ 0 ↓ 0
2024-07-05 magnet Месть / Рождественская песнь / Keuriseumaseu kaereol / Christmas Carol (2022) WEB-DLRip-AVC от DoMiNo & селезень | D 1.46 GB ↑ 0 ↓ 0
2024-06-29 magnet Веревка: Месть / La Soga 3 Vengeance (2023) WEB-DL 1080p от ELEKTRI4KA | D | Локализованная версия 3.10 GB ↑ 0 ↓ 0
2024-06-29 magnet Веревка: Месть / La Soga 3 Vengeance (2023) WEB-DLRip от ELEKTRI4KA | D | Локализованная версия 1.37 GB ↑ 0 ↓ 0
2024-06-09 magnet Месть Золушки / Cinderella's Revenge (2024) WEB-DL 1080p | ViruseProject 4.50 GB ↑ 0 ↓ 0

Комментарии


Зарегистрируйтесь чтобы добавить комментарий
Торрент клиент
byTorrent - программа для загрузки торрент-файлов.

Скачать byTorrent.exe (1,5 МБ)

Скачать byTorrent.zip (0,6 МБ)

Поддержи torrent.by
российских рублей
(300 российских рублей это 4$)

Обратная связь rss

End game ©