↑↓torrent.by
Поиск
Логин:  Регистрация
Пароль:

Неспящие в Сеуле / Одинокие в Сеуле / Singgeul in Seoul / Single in Seoul (2023) WEB-DL 1080p | P

download Скачать торрент-файл   magnet Магнитная ссылка Размер: 4.37 GB Добавлен: 2024-07-05 11:00
Пиры будут получены из сети DHT
Последний сидер был замечен 2024-07-11 21:54
Информация о фильме Название: Неспящие в Сеуле / Одинокие в Сеуле Оригинальное название: Singgeul in Seoul / Single in Seoul Год выхода: 2023 Жанр: мелодрама, комедия Режиссер: Пак Пом-су В ролях: Ли Дон-ук, Лим Су-джон, Исом, Чан Хён-сон, Ким Джи-ён, Ли Ми-до, Ли Сан-и, Чи И-су, Юн Ге-сан, Чо Ён-джин О фильме: Ён-хо — популярный лектор и инфлюэнсер, он обожает жить один и не стремится связывать себя отношениями. Однажды небольшое издательство предлагает ему стать автором книги «Одинокие в Сеуле» из серии про жизнь одиночек в разных городах, а главным редактором оказывается его знакомая по университету. Страна: Корея Южная Студия: DCG Plus, Insight Film, Lotte Entertainment, Myung Films Продолжительность: 01:43:00 Перевод: Профессиональный (многоголосый закадровый) Paragraph Media Видео "перетянуто" в нативные 24p. Русская аудиодорожка подогнана без пересжатия звука. Файл Качество: WEB-DL 1080p (Netflix) Видео: 1920x1080 at 24 fps, MPEG-4 AVC, ~5000 kbps avg Аудио 1: 48 kHz, E-AC3, 3/2 (L,C,R,l,r) + LFE ch, ~448 kbps avg | Paragraph Media Аудио 2: 48 kHz, E-AC3, 3/2 (L,C,R,l,r) + LFE ch, ~640 kbps avg | Korean Субтитры: русские (Forced, Full), английские, корейские (Forced, SDH) Семпл
[+] Скриншоты
[+] MediaInfoОбщее Уникальный идентификатор : 89388768464093228741313246062517292317 (0x433FA68CEA3166569493611023960D1D) Полное имя : Single.in.Seoul.2023.1080p.NF.WEB-DL.DDP5.1.H.264-MrHulk_Kyle.mkv Формат : Matroska Версия формата : Version 4 Размер файла : 4,37 Гбайт Продолжительность : 1 ч. 43 мин. Режим общего битрейта : Переменный Общий битрейт : 6 067 Кбит/сек Частота кадров : 24,000 кадра/сек Дата кодирования : 2024-07-05 00:54:01 UTC Программа кодирования : mkvmerge v85.0 ('Shame For You') 64-bit Библиотека кодирования : libebml v1.4.5 + libmatroska v1.7.1 Обложка : Yes Attachments : cover.jpg Видео Идентификатор : 1 Формат : AVC Формат/Информация : Advanced Video Codec Профиль формата : Main@L4 Настройки формата : CABAC / 3 Ref Frames Параметр CABAC формата : Да Параметр RefFrames формата : 3 кадра Идентификатор кодека : V_MPEG4/ISO/AVC Продолжительность : 1 ч. 43 мин. Вид битрейта : Переменный Битрейт : 5 000 Кбит/сек Максимальный битрейт : 7 500 Кбит/сек Ширина : 1 920 пикселей Высота : 1 080 пикселей Соотношение сторон дисплея : 16:9 Режим частоты кадров : Постоянный Частота кадров : 24,000 кадра/сек Цветовое пространство : YUV Цветовая субдискретизация : 4:2:0 Битовая глубина : 8 бит Тип развёртки : Прогрессивная Бит/(Пиксели*Кадры) : 0.100 Размер потока : 3,58 Гбайт (82%) Библиотека кодирования : x264 core 148 r2727 7d026e8 Параметры библиотеки кодирования : cabac=1 / ref=3 / deblock=1:0:0 / analyse=0x1:0x111 / me=umh / subme=10 / psy=1 / psy_rd=1.00:0.00 / mixed_ref=1 / me_range=24 / chroma_me=1 / trellis=2 / 8x8dct=0 / cqm=0 / deadzone=21,11 / fast_pskip=1 / chroma_qp_offset=-2 / threads=6 / lookahead_threads=1 / sliced_threads=0 / nr=0 / decimate=1 / interlaced=0 / bluray_compat=0 / stitchable=1 / constrained_intra=0 / bframes=2 / b_pyramid=0 / b_adapt=2 / b_bias=0 / direct=3 / weightb=1 / open_gop=0 / weightp=2 / keyint=240 / keyint_min=121 / scenecut=0 / intra_refresh=0 / rc_lookahead=48 / rc=2pass / mbtree=1 / bitrate=5000 / ratetol=1.0 / qcomp=0.50 / qpmin=6 / qpmax=51 / qpstep=4 / cplxblur=20.0 / qblur=0.5 / vbv_maxrate=7500 / vbv_bufsize=10000 / nal_hrd=vbr / filler=0 / ip_ratio=1.40 / aq=1:1.00 По умолчанию : Да Принудительно : Нет Аудио #1 Идентификатор : 2 Формат : E-AC-3 Формат/Информация : Enhanced AC-3 Коммерческое название : Dolby Digital Plus Идентификатор кодека : A_EAC3 Продолжительность : 1 ч. 42 мин. Вид битрейта : Постоянный Битрейт : 448 Кбит/сек Канал(-ы) : 6 каналов Расположение каналов : L R C LFE Ls Rs Частота дискретизации : 48,0 КГц Частота кадров : 31,250 кадров/сек (1536 SPF) Метод сжатия : С потерями Размер потока : 330 Мбайт (7%) Заголовок : Russian Язык : Русский Вид сервиса : Complete Main По умолчанию : Да Принудительно : Нет Нормализация звука речи : -23 dB compr : 5.74 dB dmixmod : Lo/Ro ltrtcmixlev : -3.0 dB ltrtsurmixlev : -3.0 dB lorocmixlev : -3.0 dB lorosurmixlev : -3.0 dB dialnorm_Average : -23 dB dialnorm_Minimum : -23 dB dialnorm_Maximum : -23 dB Аудио #2 Идентификатор : 3 Формат : E-AC-3 Формат/Информация : Enhanced AC-3 Коммерческое название : Dolby Digital Plus Идентификатор кодека : A_EAC3 Продолжительность : 1 ч. 43 мин. Вид битрейта : Постоянный Битрейт : 640 Кбит/сек Канал(-ы) : 6 каналов Расположение каналов : L R C LFE Ls Rs Частота дискретизации : 48,0 КГц Частота кадров : 31,250 кадров/сек (1536 SPF) Метод сжатия : С потерями Размер потока : 472 Мбайт (11%) Заголовок : Korean Язык : Корейский Вид сервиса : Complete Main По умолчанию : Нет Принудительно : Нет Нормализация звука речи : -31 dB compr : -0.28 dB dmixmod : Lo/Ro ltrtcmixlev : -3.0 dB ltrtsurmixlev : -3.0 dB lorocmixlev : -3.0 dB lorosurmixlev : -3.0 dB dialnorm_Average : -31 dB dialnorm_Minimum : -31 dB dialnorm_Maximum : -31 dB Текст #1 Идентификатор : 4 Формат : UTF-8 Идентификатор кодека : S_TEXT/UTF8 Идентификатор кодека/Информация : UTF-8 Plain Text Продолжительность : 1 ч. 36 мин. Битрейт : 8 бит/сек Частота кадров : 0,018 кадр/сек Число элементов : 104 Размер потока : 6,09 КиБ (0%) Заголовок : Russian, Forced Язык : Русский По умолчанию : Да Принудительно : Нет Текст #2 Идентификатор : 5 Формат : UTF-8 Идентификатор кодека : S_TEXT/UTF8 Идентификатор кодека/Информация : UTF-8 Plain Text Продолжительность : 1 ч. 38 мин. Битрейт : 103 бит/сек Частота кадров : 0,260 кадр/сек Число элементов : 1535 Размер потока : 74,4 КиБ (0%) Заголовок : Russian, Full Язык : Русский По умолчанию : Нет Принудительно : Нет Текст #3 Идентификатор : 6 Формат : UTF-8 Идентификатор кодека : S_TEXT/UTF8 Идентификатор кодека/Информация : UTF-8 Plain Text Продолжительность : 1 ч. 41 мин. Битрейт : 56 бит/сек Частота кадров : 0,225 кадр/сек Число элементов : 1376 Размер потока : 42,3 КиБ (0%) Заголовок : English Язык : Английский По умолчанию : Нет Принудительно : Нет Текст #4 Идентификатор : 7 Формат : UTF-8 Идентификатор кодека : S_TEXT/UTF8 Идентификатор кодека/Информация : UTF-8 Plain Text Продолжительность : 9 мин. 0 с. Битрейт : 0 бит/сек Частота кадров : 0,004 кадр/сек Число элементов : 2 Размер потока : 63,0 байта (0%) Заголовок : Korean, Forced Язык : Корейский По умолчанию : Нет Принудительно : Нет Текст #5 Идентификатор : 8 Формат : UTF-8 Идентификатор кодека : S_TEXT/UTF8 Идентификатор кодека/Информация : UTF-8 Plain Text Продолжительность : 1 ч. 41 мин. Битрейт : 95 бит/сек Частота кадров : 0,352 кадр/сек Число элементов : 2138 Размер потока : 70,7 КиБ (0%) Заголовок : Korean, SDH Язык : Корейский По умолчанию : Нет Принудительно : Нет
Релиз от: by Kyle

Всего файлов в раздаче: 1 
Single.in.Seoul.2023.1080p.NF.WEB-DL.DDP5.1.H.264-MrHulk_Kyle.mkv4.37 GB

Похожие раздачи по запросу - Неспящие
2024-07-05 magnet Неспящие в Сеуле / Одинокие в Сеуле / Singgeul in Seoul / Single in Seoul (2023) WEB-DLRip от DoMiNo & селезень | P | Paragraph Media 1.46 GB ↑ 0 ↓ 0

Комментарии


Зарегистрируйтесь чтобы добавить комментарий
Торрент клиент
byTorrent - программа для загрузки торрент-файлов.

Скачать byTorrent.exe (1,5 МБ)

Скачать byTorrent.zip (0,6 МБ)

Поддержи torrent.by
российских рублей
(300 российских рублей это 4$)

Обратная связь rss

End game ©