↑↓torrent.by
Поиск
Логин:  Регистрация
Пароль:

The Alan Parsons Project - Vulture Culture [Remaster] (1984/2024) FLAC

download Скачать торрент-файл   magnet Магнитная ссылка Размер: 686.91 MB Добавлен: 2024-07-05 17:00
Пиры будут получены из сети DHT
Последний сидер был замечен 2024-07-13 09:49
The Alan Parsons Project - Vulture Culture (1984) Remaster, 2024, Ariola Жанр: Crossover-Prog Издание: Ariola Источник: ссылка Продолжительность: 00:38:04 Кодек: FLAC 24/88.2 Битрейт: Lossless|WEB-DL Тип рипа: tracks Треклист: 01. Let's Talk About Me (2024 Remaster) (4:29) 02. Separate Lives (2024 Remaster) (5:03) 03. Days Are Numbers (The Traveller) (4:28) 04. Sooner or Later (2024 Remaster) (4:28) 05. Vulture Culture (2024 Remaster) (5:23) 06. Hawkeye (2024 Remaster) (3:49) 07. Somebody Out There (2024 Remaster) (4:56) 08. The Same Old Sun (2024 Remaster) (5:28)
[+] Отчёт DR: -------------------------------------------------------------------------------- Analyzed: The Alan Parsons Project / Vulture Culture -------------------------------------------------------------------------------- DR Peak RMS Duration Track -------------------------------------------------------------------------------- DR13 -0.29 dB -17.38 dB 4:29 01-Let's Talk About Me (2024 Remaster) DR15 0.00 dB -17.22 dB 5:03 02-Separate Lives (2024 Remaster) DR15 -0.13 dB -18.10 dB 4:28 03-Days Are Numbers (The Traveller) DR14 -0.32 dB -16.04 dB 4:28 04-Sooner or Later (2024 Remaster) DR14 -0.30 dB -17.30 dB 5:23 05-Vulture Culture (2024 Remaster) DR14 -0.30 dB -16.56 dB 3:49 06-Hawkeye (2024 Remaster) DR14 -0.30 dB -16.25 dB 4:56 07-Somebody Out There (2024 Remaster) DR14 -0.30 dB -17.63 dB 5:28 08-The Same Old Sun (2024 Remaster) -------------------------------------------------------------------------------- Number of tracks: 8 Official DR value: DR14 Samplerate: 88200 Hz Channels: 2 Bits per sample: 24 Bitrate: 2484 kbps Codec: FLAC ================================================================================
[+] Отчёт Mi:

Всего файлов в раздаче: 9 
01 Let's Talk About Me (2024 Remaster).flac79.34 MB
02 Separate Lives (2024 Remaster).flac91.09 MB
03 Days Are Numbers (The Traveller) [2024 Remaster].flac80.61 MB
04 Sooner or Later (2024 Remaster).flac82.19 MB
05 Vulture Culture (2024 Remaster).flac95.36 MB
06 Hawkeye (2024 Remaster).flac69.67 MB
07 Somebody Out There (2024 Remaster).flac91.17 MB
08 The Same Old Sun (2024 Remaster).flac97.29 MB
Cover.jpg202.38 kB

Комментарии


Зарегистрируйтесь чтобы добавить комментарий
Торрент клиент
byTorrent - программа для загрузки торрент-файлов.

Скачать byTorrent.exe (1,5 МБ)

Скачать byTorrent.zip (0,6 МБ)

Поддержи torrent.by
российских рублей
(300 российских рублей это 4$)

Обратная связь rss

End game ©