↑↓torrent.by
Поиск
Логин:  Регистрация
Пароль:

Воришки (2023) WEB-DL 1080p

download Скачать торрент-файл   magnet Магнитная ссылка Размер: 3.06 GB Добавлен: 2024-07-05 17:00
Пиры будут получены из сети DHT
Последний сидер был замечен 2024-07-09 17:40
Название: Воришки Год выпуска: 2023 Жанр: Триллер Выпущено: Казахстан Режиссер: Алена Алмаз В ролях: Ербол Семкулов, Айгерим Жунусова, Дулыга Акмолда, Рустем Жаныаманов О фильме: Сироты Сана и Амир, выросшие в детдоме, с детства привыкли воровать. Однажды они идут на рисковое ограбление богатого дома, чтобы сорвать большой куш. Cана и Амир тщательно планируют кражу, но сталкиваются с опасными испытаниями и преградами. Файл Формат: MKV Качество: WEB-DL 1080p Видео: MPEG-4 AVC, 5120 Кбит/с, 1920x802 Аудио: AAC, 2 ch, 256 Кбит/с Продолжительность: 01:21:31 Язык: Русский Субтитры: Нет
[+] MediaInfo:General Unique ID : 69717242950795734543085318204810366406 (0x34730D76238B7762F77BEA9351748DC6) Complete name : E:Vorishki.2023.1080p.WEB-DL.mkv Format : Matroska Format version : Version 4 File size : 3.06 GiB Duration : 1 h 21 min Overall bit rate : 5 373 kb/s Encoded date : UTC 2024-07-05 10:54:14 Writing application : mkvmerge v62.0.0 ('Apollo') 64-bit Writing library : libebml v1.4.2 + libmatroska v1.6.4 Video ID : 1 Format : AVC Format/Info : Advanced Video Codec Format profile : High@L4 Format settings : CABAC / 4 Ref Frames Format settings, CABAC : Yes Format settings, Reference frames : 4 frames Codec ID : V_MPEG4/ISO/AVC Duration : 1 h 21 min Bit rate : 5 120 kb/s Width : 1 920 pixels Height : 802 pixels Display aspect ratio : 2.40:1 Frame rate mode : Constant Frame rate : 24.000 FPS Color space : YUV Chroma subsampling : 4:2:0 Bit depth : 8 bits Scan type : Progressive Bits/(Pixel*Frame) : 0.139 Stream size : 2.91 GiB (95%) Writing library : x264 core 152 r2854 e9a5903 Encoding settings : cabac=1 / ref=3 / deblock=1:0:0 / analyse=0x3:0x113 / me=hex / subme=7 / psy=1 / psy_rd=1.00:0.00 / mixed_ref=1 / me_range=16 / chroma_me=1 / trellis=1 / 8x8dct=1 / cqm=0 / deadzone=21,11 / fast_pskip=1 / chroma_qp_offset=-2 / threads=25 / lookahead_threads=4 / sliced_threads=0 / nr=0 / decimate=1 / interlaced=0 / bluray_compat=0 / constrained_intra=0 / bframes=6 / b_pyramid=2 / b_adapt=1 / b_bias=0 / direct=1 / weightb=1 / open_gop=0 / weightp=2 / keyint=48 / keyint_min=25 / scenecut=0 / intra_refresh=0 / rc_lookahead=40 / rc=2pass / mbtree=1 / bitrate=5120 / ratetol=1.0 / qcomp=0.60 / qpmin=0 / qpmax=69 / qpstep=4 / cplxblur=20.0 / qblur=0.5 / vbv_maxrate=7680 / vbv_bufsize=20480 / nal_hrd=none / filler=0 / ip_ratio=1.40 / aq=1:1.00 Default : Yes Forced : No Audio ID : 2 Format : AAC LC Format/Info : Advanced Audio Codec Low Complexity Codec ID : A_AAC-2 Duration : 1 h 21 min Bit rate : 256 kb/s Channel(s) : 2 channels Channel layout : L R Sampling rate : 48.0 kHz Frame rate : 46.875 FPS (1024 SPF) Compression mode : Lossy Stream size : 149 MiB (5%) Language : Russian Default : Yes Forced : No
[+] Скриншоты

Всего файлов в раздаче: 1 
Vorishki.2023.1080p.WEB-DL.mkv3.06 GB

Комментарии


Зарегистрируйтесь чтобы добавить комментарий
Торрент клиент
byTorrent - программа для загрузки торрент-файлов.

Скачать byTorrent.exe (1,5 МБ)

Скачать byTorrent.zip (0,6 МБ)

Поддержи torrent.by
российских рублей
(300 российских рублей это 4$)

Обратная связь rss

End game ©