↑↓torrent.by
Поиск
Логин:  Регистрация
Пароль:

Неспящие в Сеуле / Одинокие в Сеуле / Singgeul in Seoul / Single in Seoul (2023) WEB-DLRip от DoMiNo & селезень | P | Paragraph Media

download Скачать торрент-файл   magnet Магнитная ссылка Размер: 1.46 GB Добавлен: 2024-07-05 17:00
Пиры будут получены из сети DHT
Последний сидер был замечен вчера в 02:19
Информация о фильме Название: Неспящие в Сеуле / Одинокие в Сеуле Оригинальное название: Singgeul in Seoul / Single in Seoul Год выхода: 2023 Жанр: Мелодрама, комедия Режиссер: Пак Пом-су В ролях: Ли Дон-ук, Лим Су-джон, Исом, Чан Хён-сон, Ким Джи-ён, Ли Ми-до, Ли Сан-и, Чи И-су, Юн Ге-сан, Чо Ён-джин О фильме: Ён-хо — популярный лектор и инфлюэнсер, он обожает жить один и не стремится связывать себя отношениями. Однажды небольшое издательство предлагает ему стать автором книги «Одинокие в Сеуле» из серии про жизнь одиночек в разных городах, а главным редактором оказывается его знакомая по университету. Страна: Корея Южная Студия: DCG Plus, Insight Film, Lotte Entertainment, Myung Films Продолжительность: 01:43:00 Перевод: Профессиональный (многоголосый закадровый) | Paragraph Media Субтитры: Русские (Forced - хардсаб, Full), английские, корейские (Forced, SDH) - отдельно Файл Формат: AVI Качество: WEB-DLRip Видео: 720x304 at 24.000 fps, XviD 69, ~1570 kbps Аудио: AC3, 6 ch, ~448 kbps - | Русский | Формат субтитров: softsub (SRT) ***Рип от: -=DoMiNo=-
[+] M/IGeneral Complete name : U:Single.in.Seoul.2023.MVO.NF.WEB-DLRip.seleZenSingle.in.Seoul.2023.MVO.NF.WEB-DLRip.seleZen.avi Format : AVI Format/Info : Audio Video Interleave Format settings : BitmapInfoHeader / WaveFormatEx File size : 1.46 GiB Duration : 1 h 42 min Overall bit rate : 2 027 kb/s Frame rate : 24.000 FPS Movie name : Single.in.Seoul.2023.MVO.NF.WEB-DLRip.seleZen Writing application : VirtualDubModRus 1.5.10.2 (build 2542/release) Writing library : VirtualDubMod build 2542/release Copyright : -=DoMiNo=- Video ID : 0 Format : MPEG-4 Visual Format profile : Advanced Simple@L5 Format settings : BVOP1 / Custom Matrix Format settings, BVOP : 1 Format settings, QPel : No Format settings, GMC : No warppoints Format settings, Matrix : Custom Codec ID : XVID Codec ID/Hint : XviD Duration : 1 h 42 min Bit rate : 1 570 kb/s Width : 720 pixels Height : 304 pixels Display aspect ratio : 2.39:1 Frame rate : 24.000 FPS Color space : YUV Chroma subsampling : 4:2:0 Bit depth : 8 bits Scan type : Progressive Compression mode : Lossy Bits/(Pixel*Frame) : 0.299 Stream size : 1.13 GiB (77%) Writing library : XviD 69 Audio ID : 1 Format : AC-3 Format/Info : Audio Coding 3 Commercial name : Dolby Digital Codec ID : 2000 Duration : 1 h 42 min Bit rate mode : Constant Bit rate : 448 kb/s Channel(s) : 6 channels Channel layout : L R C LFE Ls Rs Sampling rate : 48.0 kHz Frame rate : 31.250 FPS (1536 SPF) Compression mode : Lossy Stream size : 330 MiB (22%) Alignment : Split across interleaves Interleave, duration : 42 ms (1.00 video frame) Interleave, preload duratio : 500 ms Service kind : Complete Main Dialog Normalization : -24 dB compr : -0.28 dB cmixlev : -3.0 dB surmixlev : -3 dB mixlevel : 285 dB roomtyp : 3 ltrtcmixlev : -3.0 dB ltrtsurmixlev : -3.0 dB lorocmixlev : -3.0 dB lorosurmixlev : -4.5 dB dialnorm_Average : -24 dB dialnorm_Minimum : -24 dB dialnorm_Maximum : -24 dB
Релиз: Присоединяйся к: Кликай на баннеры.

Всего файлов в раздаче: 5 
Single.in.Seoul.2023.MVO.NF.WEB-DLRip.seleZen.[eng].srt96.30 kB
Single.in.Seoul.2023.MVO.NF.WEB-DLRip.seleZen.[kor].SDH.srt155.26 kB
Single.in.Seoul.2023.MVO.NF.WEB-DLRip.seleZen.[kor].forced.srt142.00 B
Single.in.Seoul.2023.MVO.NF.WEB-DLRip.seleZen.[rus].srt134.76 kB
Single.in.Seoul.2023.MVO.NF.WEB-DLRip.seleZen.avi1.46 GB

Похожие раздачи по запросу - Неспящие
2024-07-05 magnet Неспящие в Сеуле / Одинокие в Сеуле / Singgeul in Seoul / Single in Seoul (2023) WEB-DL 1080p | P 4.37 GB ↑ 0 ↓ 0

Комментарии


Зарегистрируйтесь чтобы добавить комментарий
Торрент клиент
byTorrent - программа для загрузки торрент-файлов.

Скачать byTorrent.exe (1,5 МБ)

Скачать byTorrent.zip (0,6 МБ)

Поддержи torrent.by
российских рублей
(300 российских рублей это 4$)

Обратная связь rss

End game ©