↑↓torrent.by
Поиск
Логин:  Регистрация
Пароль:

Криминальный город. Возмездие / Beomjoe dosi 4 / The Roundup: Punishment (2024) WEB-DLRip 720p от DoMiNo | L | RGB

download Скачать торрент-файл   magnet Магнитная ссылка Размер: 2.03 GB Добавлен: 2024-07-05 17:00
Пиры будут получены из сети DHT
Последний сидер был замечен 2024-07-13 16:23
Информация о фильме Название: Криминальный город. Возмездие Оригинальное название: Beomjoedosi4 / Beomjoe dosi 4 / The Roundup: Punishment Год выхода: 2024 Жанр: Криминал, боевик, детектив Режиссер: Хо Мён-хэн В ролях: Ма Дон-сок, Ким Му-ёль, Ли Дон-хви, Пак Чи-хван, Ли Бом-су, Ким Мин-джэ, Ли Джу-бин, Хён Бон-щик, Ли Джи-хун О фильме: Детектив Ма Сок-то создал отдел по борьбе с киберпреступлениями и пытается поймать организаторов крупнейшего в стране нелегального онлайн-казино. Страна: Южная Корея Студия: ABO Entertainment, B.A. Entertainment, Big Punch Pictures, Hong Film Продолжительность: 01:49:12 Перевод: Любительский (многоголосый закадровый) | RGB | 18+ Файл Формат: Matroska Качество: WEB-DLRip 720p Видео: 1280x536 at 24.000 fps, x264@L4.1, ~2466 kbps Аудио: AC3, 2 ch, ~192 kbps - | Русский | Субтитры: Отсутствуют ***Рип от: -=DoMiNo=-
[+] M/IGeneral Unique ID : 8146816642090413910463618492245229424 (0x62105126A498C713E84C88D8D2C3F70) Complete name : G:The.Roundup.Punishment.2024.WEB-DLRip.720p.x264.mkv Format : Matroska Format version : Version 4 File size : 2.03 GiB Duration : 1 h 49 min Overall bit rate : 2 660 kb/s Frame rate : 24.000 FPS Movie name : The.Roundup.Punishment.2024.WEB-DLRip.720p.x264 Encoded date : 2024-07-05 08:50:47 UTC Writing application : mkvmerge v85.0 ('Shame For You') 64-bit Writing library : libebml v1.4.5 + libmatroska v1.7.1 Cover : Yes Attachments : cover.jpg / small_cover.jpg Video ID : 1 Format : AVC Format/Info : Advanced Video Codec Format profile : High@L4.1 Format settings : CABAC / 5 Ref Frames Format settings, CABAC : Yes Format settings, Reference : 5 frames Codec ID : V_MPEG4/ISO/AVC Duration : 1 h 49 min Bit rate : 2 466 kb/s Width : 1 280 pixels Height : 536 pixels Display aspect ratio : 2.39:1 Frame rate mode : Constant Frame rate : 24.000 FPS Color space : YUV Chroma subsampling : 4:2:0 Bit depth : 8 bits Scan type : Progressive Bits/(Pixel*Frame) : 0.150 Stream size : 1.88 GiB (93%) Title : -=DoMiNo=- Writing library : x264 core 164 r3191 -DoMiNo Encoding settings : cabac=1 / ref=5 / deblock=1:-1:-1 / analyse=0x3:0x133 / me=umh / subme=10 / psy=1 / psy_rd=1.05:0.05 / mixed_ref=1 / me_range=32 / chroma_me=1 / trellis=2 / 8x8dct=1 / cqm=0 / deadzone=21,11 / fast_pskip=0 / chroma_qp_offset=-3 / threads=17 / lookahead_threads=2 / sliced_threads=0 / nr=0 / decimate=1 / interlaced=0 / bluray_compat=0 / constrained_intra=0 / bframes=9 / b_pyramid=2 / b_adapt=2 / b_bias=0 / direct=3 / weightb=1 / open_gop=0 / weightp=2 / keyint=240 / keyint_min=24 / scenecut=40 / intra_refresh=0 / rc_lookahead=60 / rc=crf / mbtree=0 / crf=18.5 / qcomp=0.60 / qpmin=0 / qpmax=69 / qpstep=4 / vbv_maxrate=50000 / vbv_bufsize=62500 / crf_max=0.0 / nal_hrd=none / filler=0 / ip_ratio=1.40 / pb_ratio=1.30 / aq=1:0.90 Language : Korean Default : Yes Forced : No Color range : Limited Color primaries : BT.709 Transfer characteristics : BT.709 Matrix coefficients : BT.709 Audio ID : 2 Format : AC-3 Format/Info : Audio Coding 3 Commercial name : Dolby Digital Codec ID : A_AC3 Duration : 1 h 49 min Bit rate mode : Constant Bit rate : 192 kb/s Channel(s) : 2 channels Channel layout : L R Sampling rate : 48.0 kHz Frame rate : 31.250 FPS (1536 SPF) Compression mode : Lossy Stream size : 150 MiB (7%) Title : MVO - RGB 18+ Language : Russian Service kind : Complete Main Default : Yes Forced : No Dialog Normalization : -31 dB compr : 4.22 dB mixlevel : 285 dB roomtyp : 3 ltrtcmixlev : -3.0 dB ltrtsurmixlev : -3.0 dB lorocmixlev : -3.0 dB lorosurmixlev : -3.0 dB dialnorm_Average : -31 dB dialnorm_Minimum : -31 dB dialnorm_Maximum : -31 dB Menu 00:00:00.000 : en:Chapter 01 00:05:50.000 : en:Chapter 02 00:11:40.000 : en:Chapter 03 00:17:30.000 : en:Chapter 04 00:23:20.000 : en:Chapter 05 00:29:10.000 : en:Chapter 06 00:35:00.000 : en:Chapter 07 00:40:50.000 : en:Chapter 08 00:46:40.000 : en:Chapter 09 00:52:30.000 : en:Chapter 10 00:58:20.000 : en:Chapter 11 01:04:10.000 : en:Chapter 12 01:10:00.000 : en:Chapter 13 01:15:50.000 : en:Chapter 14 01:21:40.000 : en:Chapter 15 01:27:30.000 : en:Chapter 16 01:33:20.000 : en:Chapter 17 01:39:10.000 : en:Chapter 18 01:45:00.000 : en:Chapter 19

Всего файлов в раздаче: 1 
The.Roundup.Punishment.2024.WEB-DLRip.720p.x264.mkv2.03 GB

Похожие раздачи по запросу - Криминальный город
Вчера magnet Город золотого паука / Huang jin zhi zhu cheng / Golden Spider City (2022) WEB-DL 1080p | D 3.33 GB ↑ 0 ↓ 1
2024-07-23 magnet Пётр Жгулёв - Цикл «Город гоблинов» [11 книг] (2019-2024) FB2 20.25 MB ↑ 0 ↓ 0
2024-07-23 magnet Дэшил Хэммет - Кошмарный город [сборник] (2024) MP3 476.06 MB ↑ 0 ↓ 0
2024-07-22 magnet Ночь и город / Night and the City (1950) BDRip 720p от msltel | P2 6.28 GB ↑ 0 ↓ 0
2024-07-22 magnet Мой шпион: Вечный город / My Spy: The Eternal City (2024) WEB-DL 1080p от JNS82 | L | LE-Production 5.84 GB ↑ 0 ↓ 7
2024-07-22 magnet Мой шпион: Вечный город / My Spy: The Eternal City (2024) WEB-DLRip-AVC от ExKinoRay | P2 | ViruseProject 745.01 MB ↑ 0 ↓ 2
2024-07-20 magnet Мой шпион: Вечный город / My Spy: The Eternal City (2024) WEB-DLRip 720p от DoMiNo & селезень | P2 | ViruseProject 2.20 GB ↑ 1 ↓ 1

Комментарии


Зарегистрируйтесь чтобы добавить комментарий
Торрент клиент
byTorrent - программа для загрузки торрент-файлов.

Скачать byTorrent.exe (1,5 МБ)

Скачать byTorrent.zip (0,6 МБ)

Поддержи torrent.by
российских рублей
(300 российских рублей это 4$)

Обратная связь rss

End game ©