↑↓torrent.by
Поиск
Логин:  Регистрация
Пароль:

Тоска / Longing (2024) WEB-DLRip-AVC | L | RGB

download Скачать торрент-файл   magnet Магнитная ссылка Размер: 1.57 GB Раздают: 9 Качают: 0 Добавлен: il68k 2024-07-05 22:42
Пиры будут получены из сети DHT
Последний сидер был замечен сегодня в 12:19
Информация о фильме Название: Тоска Оригинальное название: Longing Год выхода: 2024 Жанр: драма, комедия Режиссер: Шаби Габизон В ролях: Ричард Гир, Сюзанн Клеман, Лиза Чуонг, Гордон Фултон, Майя Мисалевич, Ева Мюррей, Ваня Гиусто, Мишель Жиру, Эван Булиунг, Фиона Бирн, Хрант Альянак, Уэйн Барнс О фильме: Бизнес-магнат сталкивается со своей бывшей девушкой из провинции, когда она приезжает в большой город, и узнает, что у них родился ребенок, о котором он не подозревал. Страна: Канада Студия: Anamorphic Media, Current Flow Entertainment, Envision Media Arts Продолжительность: 01:51:20 Перевод: Любительский (многоголосый закадровый) | RGB Файл Формат: MKV Качество: WEB-DLRip-AVC Видео: AVC/H.264, 720x300, ~1631 Kbps, 23.976 fps Аудио: 48.0 kHz, AC3, 6 ch, ~384 kbps | Русский Субтитры: отсутствуют Семпл
[+] Скриншоты
[+] MediaInfo General Unique ID : 304787812231101211384127395706804092452 (0xE54BFF574FB37B0834E5D7C0DAD7BE24) Complete name : E:\RGB\Longing.2024.WEB.MVO-RGB.mkv Format : Matroska Format version : Version 4 File size : 1.57 GiB Duration : 1 h 51 min Overall bit rate : 2 017 kb/s Frame rate : 23.976 FPS Movie name : RGB Encoded date : 2024-07-05 13:04:21 UTC Writing application : mkvmerge v82.0 ('I'm The President') 64-bit Writing library : libebml v1.4.5 + libmatroska v1.7.1 Video ID : 1 Format : AVC Format/Info : Advanced Video Codec Format profile : High@L4.1 Format settings : CABAC / 10 Ref Frames Format settings, CABAC : Yes Format settings, Reference : 10 frames Codec ID : V_MPEG4/ISO/AVC Duration : 1 h 51 min Bit rate : 1 631 kb/s Width : 720 pixels Height : 300 pixels Display aspect ratio : 2.40:1 Frame rate mode : Constant Frame rate : 23.976 (24000/1001) FPS Color space : YUV Chroma subsampling : 4:2:0 Bit depth : 8 bits Scan type : Progressive Bits/(Pixel*Frame) : 0.315 Stream size : 1.27 GiB (81%) Title : RGB Language : English Default : Yes Forced : No Audio ID : 2 Format : AC-3 Format/Info : Audio Coding 3 Commercial name : Dolby Digital Codec ID : A_AC3 Duration : 1 h 51 min Bit rate mode : Constant Bit rate : 384 kb/s Channel(s) : 6 channels Channel layout : L R C LFE Ls Rs Sampling rate : 48.0 kHz Frame rate : 31.250 FPS (1536 SPF) Compression mode : Lossy Stream size : 306 MiB (19%) Title : MVO Language : Russian Service kind : Complete Main Default : Yes Forced : No Dialog Normalization : -27 dB compr : -0.28 dB cmixlev : -3.0 dB surmixlev : -3 dB mixlevel : 285 dB roomtyp : 3 ltrtcmixlev : -3.0 dB ltrtsurmixlev : -3.0 dB lorocmixlev : -3.0 dB lorosurmixlev : -3.0 dB dialnorm_Average : -27 dB dialnorm_Minimum : -27 dB dialnorm_Maximum : -27 dB
Релиз от: RGB

Всего файлов в раздаче: 1 
Longing.2024.WEB.MVO-RGB.mkv1.57 GB

Похожие раздачи по запросу - Тоска
2024-07-06 magnet Тоска / Longing (2024) WEBRip 1080p от New-Team | P | TVShows 5.78 GB ↑ 0 ↓ 1
2024-07-06 magnet Тоска / Longing (2024) WEBRip-AVC | P | TVShows 1.62 GB ↑ 0 ↓ 0
2024-07-05 magnet Тоска / Longing (2024) WEB-DL 1080p | L | RGB 5.78 GB ↑ 6 ↓ 0

Комментарии


Зарегистрируйтесь чтобы добавить комментарий
Торрент клиент
byTorrent - программа для загрузки торрент-файлов.

Скачать byTorrent.exe (1,5 МБ)

Скачать byTorrent.zip (0,6 МБ)

Поддержи torrent.by
российских рублей
(300 российских рублей это 4$)

Обратная связь rss

End game ©