↑↓torrent.by
Поиск
Логин:  Регистрация
Пароль:

Большая гонка. Ауди против Лянчи / Race for Glory: Audi vs. Lancia (2024) BDRip 1080p от MegaPeer | D

download Скачать торрент-файл   magnet Магнитная ссылка Размер: 8.84 GB Раздают: 0 Качают: 1 Добавлен: 2024-07-06 05:00
Пиры будут получены из сети DHT
Последний сидер был замечен 2024-07-11 21:24
Информация Название: Большая гонка. Ауди против Лянчи Оригинальное название: Race for Glory: Audi vs. Lancia Год выхода: 2024 Жанр: Спорт, драма, биография Режиссер: Стефано Мордини В ролях: Даниэль Брюль, Риккардо Скамарчо, Хейли Беннетт, Кэти Кларксон-Хилл, Фолькер Брух, Эстер Гаррель, Брюно Гуэри, Аксель Галуа, Карлотта Верни, Якопо Рампини Описание: История знаменитого противостояния итальянской «Лянчи» и немецкой «Ауди». Битва двух концернов, двух философий и двух легендарных машин, за рулём которых сидели лучшие в мире пилоты. 20 трасс в 12 странах: дождь, снег, горные серпантины и узкие улочки средневековых городов. В ход идут все уловки — ни одна из команд не думает отступать. Победитель получает всё, проигравший моет машины. Страна: Италия, Великобритания, Ирландия Студия: HanWay Films, Lebowski, Metropolitan Films, Rai Cinema, Recorded Picture Company (RPC) Продолжительность: 01:47:58 Перевод: Профессиональный (полное дублирование) | Пифагор Файл Качество: BDRip 1080p Исходник: Race For Glory: Audi vs. Lancia 2024 1080p Blu-ray AVC DTS-HD MA-Tasko Формат: MKV Кодек: MPEG-4 AVC Видео: 1920x804 (2.40:1), 24 fps, MPEG-4 AVC ~ 10.2 Mbps avg, 0.275 bit/pixel Аудио: AC3, 48 kHz, 6 ch, ~448.00 kbps avg | русский | DUB | Аудио: E-AC3, 48 kHz, 6 ch, ~448.00 kbps avg | русский | DUB | Аудио: AC3, 48 kHz, 6 ch, ~640.00 kbps avg | английский | DUB | Субтитры: Русские (Forced, Full), Английские (Full)
[+] Инфо-файлОбщее Уникальный идентификатор : 193726302016299279892906078173084304444 (0x91BE541F94434757BC39270A293CC43C) Полное имя : Race.For.Glory.Audi.vs.Lancia.2024.1080p.BluRay.DD.5.1.x264-MegaPeer.mkv Формат : Matroska Версия формата : Version 4 Размер файла : 8,84 Гбайт Продолжительность : 1 ч. 47 мин. Общий битрейт : 11,7 Мбит/сек Частота кадров : 24,000 кадра/сек Название фильма : Большая гонка. Ауди против Лянчи / Race for Glory: Audi vs. Lancia (2024) от stillet@MegaPeer Дата кодирования : 2024-07-05 21:36:25 UTC Программа кодирования : mkvmerge v15.0.0 ('Duel with the Devil') 64-bit Библиотека кодирования : libebml v1.3.5 + libmatroska v1.4.5 Обложка : Yes Attachments : cover.jpg Видео Идентификатор : 1 Формат : AVC Формат/Информация : Advanced Video Codec Профиль формата : High@L4.1 Настройки формата : CABAC / 5 Ref Frames Параметр CABAC формата : Да Параметр RefFrames формата : 5 кадров Идентификатор кодека : V_MPEG4/ISO/AVC Продолжительность : 1 ч. 47 мин. Битрейт : 10,2 Мбит/сек Ширина : 1 920 пикселей Высота : 804 пикселя Соотношение сторон дисплея : 2,39:1 Режим частоты кадров : Постоянный Частота кадров : 24,000 кадра/сек Цветовое пространство : YUV Цветовая субдискретизация : 4:2:0 Битовая глубина : 8 бит Тип развёртки : Прогрессивная Бит/(Пиксели*Кадры) : 0.275 Размер потока : 7,68 Гбайт (87%) Библиотека кодирования : x264 core 164 r3186+62M stillet t_mod_New Параметры библиотеки кодирования : cabac=1 / ref=5 / deblock=1:-3:-3 / analyse=0x3:0x113 / me=umh / subme=10 / psy=1 / fade_compensate=0.00 / psy_rd=1.03:0.01 / mixed_ref=1 / me_range=32 / chroma_me=1 / trellis=2 / 8x8dct=1 / cqm=0 / deadzone=21,11 / fast_pskip=0 / chroma_qp_offset=-3 / threads=12 / lookahead_threads=2 / sliced_threads=0 / nr=0 / decimate=0 / interlaced=0 / bluray_compat=0 / constrained_intra=0 / fgo=0 / bframes=9 / b_pyramid=2 / b_adapt=2 / b_bias=0 / direct=3 / weightb=1 / open_gop=0 / weightp=2 / keyint=240 / keyint_min=24 / scenecut=40 / intra_refresh=0 / rc_lookahead=40 / rc=2pass / mbtree=0 / bitrate=10191 / ratetol=1.0 / qcomp=0.60 / qpmin=0:0:0 / qpmax=69:69:69 / qpstep=4 / cplxblur=20.0 / qblur=0.5 / vbv_maxrate=50000 / vbv_bufsize=62500 / nal_hrd=none / filler=0 / ip_ratio=1.40 / pb_ratio=1.30 / aq=1:1.10 / aq-sensitivity=10.00 / aq-factor=1.00:1.00:1.00 / aq2=0 / aq3=0 Язык : Английский По умолчанию : Да Принудительно : Нет Аудио #1 Идентификатор : 2 Формат : AC-3 Формат/Информация : Audio Coding 3 Коммерческое название : Dolby Digital Идентификатор кодека : A_AC3 Продолжительность : 1 ч. 47 мин. Вид битрейта : Постоянный Битрейт : 448 Кбит/сек Канал(-ы) : 6 каналов Расположение каналов : L R C LFE Ls Rs Частота дискретизации : 48,0 КГц Частота кадров : 31,250 кадров/сек (1536 SPF) Метод сжатия : С потерями Размер потока : 346 Мбайт (4%) Заголовок : DUB | Пифагор Язык : Русский Вид сервиса : Complete Main По умолчанию : Да Принудительно : Да AC3_metadata cmixlev : -3.0 dB surmixlev : -3 dB Аудио #2 Идентификатор : 3 Формат : E-AC-3 Формат/Информация : Enhanced AC-3 Коммерческое название : Dolby Digital Plus Идентификатор кодека : A_EAC3 Продолжительность : 1 ч. 47 мин. Вид битрейта : Постоянный Битрейт : 448 Кбит/сек Канал(-ы) : 6 каналов Расположение каналов : L R C LFE Ls Rs Частота дискретизации : 48,0 КГц Частота кадров : 31,250 кадров/сек (1536 SPF) Метод сжатия : С потерями Размер потока : 346 Мбайт (4%) Заголовок : DUB | Пифагор Язык : Русский Вид сервиса : Complete Main По умолчанию : Нет Принудительно : Нет Аудио #3 Идентификатор : 4 Формат : AC-3 Формат/Информация : Audio Coding 3 Коммерческое название : Dolby Digital Идентификатор кодека : A_AC3 Продолжительность : 1 ч. 47 мин. Вид битрейта : Постоянный Битрейт : 640 Кбит/сек Канал(-ы) : 6 каналов Расположение каналов : L R C LFE Ls Rs Частота дискретизации : 48,0 КГц Частота кадров : 31,250 кадров/сек (1536 SPF) Метод сжатия : С потерями Размер потока : 494 Мбайт (5%) Язык : Английский Вид сервиса : Complete Main По умолчанию : Нет Принудительно : Нет AC3_metadata cmixlev : -3.0 dB surmixlev : -3 dB Текст #1 Идентификатор : 5 Формат : UTF-8 Идентификатор кодека : S_TEXT/UTF8 Идентификатор кодека/Информация : UTF-8 Plain Text Продолжительность : 36 мин. 54 с. Битрейт : 2 бит/сек Частота кадров : 0,006 кадр/сек Число элементов : 14 Размер потока : 632 байта (0%) Заголовок : Forced Язык : Русский По умолчанию : Да Принудительно : Да Текст #2 Идентификатор : 6 Формат : UTF-8 Идентификатор кодека : S_TEXT/UTF8 Идентификатор кодека/Информация : UTF-8 Plain Text Продолжительность : 1 ч. 39 мин. Битрейт : 81 бит/сек Частота кадров : 0,241 кадр/сек Число элементов : 1443 Размер потока : 59,5 КиБ (0%) Заголовок : Full Язык : Русский По умолчанию : Нет Принудительно : Нет Текст #3 Идентификатор : 7 Формат : UTF-8 Идентификатор кодека : S_TEXT/UTF8 Идентификатор кодека/Информация : UTF-8 Plain Text Продолжительность : 1 ч. 38 мин. Битрейт : 50 бит/сек Частота кадров : 0,195 кадр/сек Число элементов : 1152 Размер потока : 36,7 КиБ (0%) Заголовок : Full Язык : Английский По умолчанию : Нет Принудительно : Нет Меню 00:00:00.000 : Chapter 01 00:09:45.375 : Chapter 03 00:18:26.583 : Chapter 03 00:26:40.625 : Chapter 04 00:36:48.500 : Chapter 05 00:44:38.541 : Chapter 06 00:53:56.625 : Chapter 07 01:02:24.375 : Chapter 08 01:11:43.166 : Chapter 09 01:20:36.666 : Chapter 10 01:29:35.541 : Chapter 11 01:36:38.957 : Chapter 12 01:47:57.500 : Chapter 13
Релиз:

Всего файлов в раздаче: 1 
Race.For.Glory.Audi.vs.Lancia.2024.1080p.BluRay.DD.5.1.x264-MegaPeer.mkv8.84 GB

Похожие раздачи по запросу - Большая
Вчера magnet Пашикин К.В. - Большая энциклопедия рыбалки. Самое полное руководство для рыболовов (2024) PDF 102.17 MB ↑ 0 ↓ 0
2024-07-08 magnet Зайцева А.А. - Русская вышивка. Большая практическая энциклопедия (2020) PDF 74.53 MB ↑ 0 ↓ 0
2024-07-06 magnet Большая гонка. Ауди против Лянчи / Race for Glory: Audi vs. Lancia (2024) BDRip 720p от New-Team | D 4.24 GB ↑ 0 ↓ 0
2024-07-06 magnet Большая гонка. Ауди против Лянчи / Race for Glory: Audi vs. Lancia (2024) BDRip от MegaPeer | D 1.46 GB ↑ 0 ↓ 1
2024-07-05 magnet Большая Прожарка [01х01] [эфир от 04.07] (2024) WEBRip 1080p от DolgOFF 1К4.07 GB ↑ 0 ↓ 0
2024-07-04 magnet Гусев И.Е. - Все знаки и символы. Большая толковая энциклопедия символов (2010) PDF 55.77 MB ↑ 0 ↓ 0
2024-07-03 magnet Новиков С. В. (ред.) - Большая историческая энциклопедия (2010) PDF 350.92 MB ↑ 0 ↓ 0

Комментарии


Зарегистрируйтесь чтобы добавить комментарий
Торрент клиент
byTorrent - программа для загрузки торрент-файлов.

Скачать byTorrent.exe (1,5 МБ)

Скачать byTorrent.zip (0,6 МБ)

Поддержи torrent.by
российских рублей
(300 российских рублей это 4$)

Обратная связь rss

End game ©