↑↓torrent.by
Поиск
Логин:  Регистрация
Пароль:

Падение империи / Гражданская война / Civil War (2024) BDRip 1080p от Generalfilm | D

download Скачать торрент-файл   magnet Магнитная ссылка Размер: 6.80 GB Добавлен: 2024-07-06 05:00
Пиры будут получены из сети DHT
Последний сидер был замечен 2024-07-11 11:28
Падение империи / Гражданская война / Civil War Информация о фильме Год выпуска: 2024 Страна: США, Великобритания Студия: DNA Films, IPR.VC, A24 Жанр: боевик, драма Перевод: Дублированный | Пифагор Продолжительность: 01:49:00 Субтитры: Русские | Forced Режиссер: Алекс Гарленд В ролях: Кирстен Данст, Вагнер Моура, Кейли Спейни, Стивен Хендерсон, Соноя Мидзуно, Ник Офферман, Джефферсон Уайт, Хуани Фелиз, Нельсон Ли, Эдмунд Донован О фильме: Недалёкое будущее, в США бушует гражданская война. Объединённые силы Запада — Калифорнии и Техаса — уже близки к взятию Вашингтона. Двое опытных военных корреспондентов и присоединившиеся к ним ветеран журналистики и начинающая девушка-фотограф отправляются из Нью-Йорка в столицу, чтобы успеть взять интервью у забаррикадировавшегося в Белом доме президента, прежде чем до него доберётся противник. Качество: BDRip 1080p Формат: MKV Видео: MPEG-4 AVC, 1920x1032 (1.85:1), 23,976 fps, 8500 Kbit/s (0.179 bit/pixel) Аудио: русский, AC3, 5.1, 48 kHz, 448 kbps | Пифагор Навигация по главам: есть Релиз от:
[+] ОтчетМедиаИнфо General Unique ID : 214983517226475732500083404384314798775 (0xA1BC51C01C2892DCB151800BC79B32B7) Complete name : E:GFCivil.War.2024.BDRip.1080p.Rip.by.HardwareMining.R.G.Generalfilm.mkv Format : Matroska Format version : Version 4 File size : 6.80 GiB Duration : 1 h 49 min Overall bit rate : 8 928 kb/s Frame rate : 23.976 FPS Movie name : Civil.War.2024.BDRip.1080p.Rip.by.HardwareMining.R.G.Generalfilm Encoded date : 2024-07-05 14:03:25 UTC Writing application : mkvmerge v6.8.0 ('Theme for Great Cities') 32bit built on Mar 2 2014 21:27:07 Writing library : libebml v1.3.0 + libmatroska v1.4.1 Cover : Yes Attachments : cover.png Video ID : 1 Format : AVC Format/Info : Advanced Video Codec Format profile : High@L4.1 Format settings : CABAC / 4 Ref Frames Format settings, CABAC : Yes Format settings, Reference frames : 4 frames Codec ID : V_MPEG4/ISO/AVC Duration : 1 h 49 min Bit rate : 8 500 kb/s Width : 1 920 pixels Height : 1 032 pixels Display aspect ratio : 1.85:1 Frame rate mode : Constant Frame rate : 23.976 FPS Color space : YUV Chroma subsampling : 4:2:0 Bit depth : 8 bits Scan type : Progressive Bits/(Pixel*Frame) : 0.179 Stream size : 6.32 GiB (93%) Writing library : x264 core 130 r2273 b3065e6 Encoding settings : cabac=1 / ref=4 / deblock=1:-2:-1 / analyse=0x3:0x133 / me=umh / subme=10 / psy=1 / psy_rd=1.00:0.08 / mixed_ref=1 / me_range=32 / chroma_me=1 / trellis=2 / 8x8dct=1 / cqm=0 / deadzone=21,11 / fast_pskip=0 / chroma_qp_offset=-3 / threads=48 / lookahead_threads=8 / sliced_threads=0 / nr=0 / decimate=1 / interlaced=0 / bluray_compat=0 / constrained_intra=0 / bframes=11 / b_pyramid=2 / b_adapt=2 / b_bias=0 / direct=3 / weightb=1 / open_gop=0 / weightp=2 / keyint=250 / keyint_min=25 / scenecut=40 / intra_refresh=0 / rc=2pass / mbtree=0 / bitrate=8500 / ratetol=1.0 / qcomp=0.60 / qpmin=0 / qpmax=69 / qpstep=4 / cplxblur=20.0 / qblur=0.5 / ip_ratio=1.40 / pb_ratio=1.30 / aq=2:1.00 Language : English Default : Yes Forced : No Color range : Limited Color primaries : BT.709 Transfer characteristics : BT.709 Matrix coefficients : BT.709 Audio ID : 2 Format : AC-3 Format/Info : Audio Coding 3 Commercial name : Dolby Digital Codec ID : A_AC3 Duration : 1 h 49 min Bit rate mode : Constant Bit rate : 448 kb/s Channel(s) : 6 channels Channel layout : L R C LFE Ls Rs Sampling rate : 48.0 kHz Frame rate : 31.250 FPS (1536 SPF) Compression mode : Lossy Stream size : 349 MiB (5%) Title : Dub | Пифагор Language : Russian Service kind : Complete Main Default : Yes Forced : No Dialog Normalization : -24 dB compr : -0.28 dB cmixlev : -3.0 dB surmixlev : -3 dB mixlevel : 285 dB roomtyp : 3 ltrtcmixlev : -3.0 dB ltrtsurmixlev : -3.0 dB lorocmixlev : -3.0 dB lorosurmixlev : -4.5 dB dialnorm_Average : -24 dB dialnorm_Minimum : -24 dB dialnorm_Maximum : -24 dB Text ID : 3 Format : UTF-8 Codec ID : S_TEXT/UTF8 Codec ID/Info : UTF-8 Plain Text Title : Forced Language : Russian Default : No Forced : No Menu 00:00:00.000 : en:Chapter 01 00:07:17.228 : en:Chapter 02 00:13:45.783 : en:Chapter 03 00:18:26.647 : en:Chapter 04 00:25:19.142 : en:Chapter 05 00:28:56.151 : en:Chapter 06 00:34:20.892 : en:Chapter 07 00:40:07.863 : en:Chapter 08 00:45:29.059 : en:Chapter 09 00:51:35.884 : en:Chapter 10 00:57:02.752 : en:Chapter 11 01:04:00.336 : en:Chapter 12 01:14:16.076 : en:Chapter 13 01:21:02.566 : en:Chapter 14 01:33:09.125 : en:Chapter 15 01:41:24.161 : en:Chapter 16
[+] Скриншоты

Всего файлов в раздаче: 1 
Civil.War.2024.BDRip.1080p.Rip.by.HardwareMining.R.G.Generalfilm.mkv6.80 GB

Похожие раздачи по запросу - Падение
2024-07-13 magnet Падение империи / Гражданская война / Civil War (2024) BDRip 1080p от Generalfilm | D 6.57 GB ↑ 0 ↓ 2
2024-07-11 magnet Падение империи / Гражданская война / Civil War (2024) BDRip-HEVC 1080p от HEVC-CLUB | D 4.64 GB ↑ 2 ↓ 0
2024-07-10 magnet Падение империи / Гражданская война / Civil War (2024) BDRip-HEVC 1080p от RIPS CLUB | D, P2 6.39 GB ↑ 0 ↓ 4
2024-07-07 magnet Падение империи / Гражданская война / Civil War (2024) HDRip-AVC от ExKinoRay | D | Пифагор 744.00 MB ↑ 0 ↓ 0
2024-07-06 magnet Падение империи / Civil War (2024) UHD BDRemux 2160p | 4K | HDR10 | Dolby Vision | D | Пифагор 67.89 GB ↑ 0 ↓ 0
2024-07-06 magnet Падение империи / Гражданская война / Civil War (2024) BDRemux 1080p | D, P2 | Пифагор, HDrezka Studio, ViruseProject 25.75 GB ↑ 0 ↓ 2
2024-07-06 magnet Падение империи / Гражданская война / Civil War (2024) BDRip 1080p от ExKinoRay | D, P, P2 13.90 GB ↑ 0 ↓ 0

Комментарии


Зарегистрируйтесь чтобы добавить комментарий
Торрент клиент
byTorrent - программа для загрузки торрент-файлов.

Скачать byTorrent.exe (1,5 МБ)

Скачать byTorrent.zip (0,6 МБ)

Поддержи torrent.by
российских рублей
(300 российских рублей это 4$)

Обратная связь rss

End game ©