↑↓torrent.by
Поиск
Логин:  Регистрация
Пароль:

Убойный отпуск / Третий в постели [01-03 из 07] (2024) WEB-DL 720p от ExKinoRay

download Скачать торрент-файл   magnet Магнитная ссылка Размер: 2.07 GB Добавлен: 2024-07-06 05:00
Пиры будут получены из сети DHT
Последний сидер был замечен 2024-07-11 12:07
Информация о фильме Название: Убойный отпуск Год выхода: 2024 Жанр: Комедия, детектив Режиссер: Сергей Дьячковский В ролях: Анна Михалкова, Александр Робак, Любовь Аксёнова, Степан Девонин, Денис Кузнецов, Сергей Дьячковский, Алим Хоконов О фильме: Люба и Рома устали от брака, но их беременная дочь Настя и зять Степа решают помочь родителям сохранить семью и дарят тур в пятизвездочный отель в Турции. Те соглашаются, чтобы не расстраивать дочку, но ни о каком восстановлении отношений не думают. Наоборот, Люба вдрызг ссорится с Ромой ещё в самолёте, требует развода, на первом же ужине начинает флиртовать с красавцем-турком, выпивает лишнего, а утром обнаруживает у себя в постели труп. Страна: Россия Студия: KION, Lookfilm Язык: Русский Файл Формат: MKV Качество: WEB-DL 720p Видео: MPEG-4 AVC, ~ 3500 Кбит/с, 1280x720, 25 кадр/с Аудио: AC3, 2 ch, 256 Кбит/с RUS Субтитры: Русские (Full (Enigma) Продолжительность: 6 х ~ 00:30:00 Реклама: Отсутствует
[+] МИ General Unique ID : 2861061235522802843281263125735010163 (0x2270535B2C77967B389FAD4C365EF73) Complete name : G:Ubojjnyjj.otpusk.S01.WEB-DL.720p.ExKinoRayUbojjnyjj.otpusk.S01.E01.WEB-DL.720p.ExKinoRay.mkv Format : Matroska Format version : Version 4 File size : 860 MiB Duration : 31 min 59 s Overall bit rate : 3 757 kb/s Encoded date : UTC 2024-07-05 10:51:26 Writing application : mkvmerge v56.1.0 ('My Friend') 64-bit Writing library : libebml v1.4.2 + libmatroska v1.6.4 Video ID : 1 Format : AVC Format/Info : Advanced Video Codec Format profile : High@L4.1 Format settings : CABAC / 9 Ref Frames Format settings, CABAC : Yes Format settings, Reference frames : 9 frames Codec ID : V_MPEG4/ISO/AVC Duration : 31 min 59 s Bit rate : 3 500 kb/s Width : 1 280 pixels Height : 720 pixels Display aspect ratio : 16:9 Frame rate mode : Constant Frame rate : 25.000 FPS Color space : YUV Chroma subsampling : 4:2:0 Bit depth : 8 bits Scan type : Progressive Bits/(Pixel*Frame) : 0.152 Stream size : 801 MiB (93%) Writing library : x264 core 146 r2538 121396c Encoding settings : cabac=1 / ref=9 / deblock=1:-3:-3 / analyse=0x3:0x113 / me=umh / subme=11 / psy=1 / psy_rd=1.00:0.02 / mixed_ref=1 / me_range=32 / chroma_me=1 / trellis=2 / 8x8dct=1 / cqm=0 / deadzone=21,11 / fast_pskip=1 / chroma_qp_offset=-3 / threads=24 / lookahead_threads=10 / sliced_threads=0 / nr=0 / decimate=0 / interlaced=0 / bluray_compat=0 / constrained_intra=0 / bframes=10 / b_pyramid=2 / b_adapt=2 / b_bias=0 / direct=3 / weightb=1 / open_gop=0 / weightp=2 / keyint=250 / keyint_min=25 / scenecut=40 / intra_refresh=0 / rc_lookahead=60 / rc=2pass / mbtree=1 / bitrate=3500 / ratetol=1.0 / qcomp=0.60 / qpmin=0 / qpmax=69 / qpstep=4 / cplxblur=20.0 / qblur=0.5 / vbv_maxrate=14000 / vbv_bufsize=14000 / nal_hrd=none / filler=0 / ip_ratio=1.40 / aq=3:1.40 Language : Russian Default : Yes Forced : No Color range : Limited Color primaries : BT.709 Transfer characteristics : BT.709 Matrix coefficients : BT.709 Audio ID : 2 Format : AC-3 Format/Info : Audio Coding 3 Commercial name : Dolby Digital Codec ID : A_AC3 Duration : 31 min 59 s Bit rate mode : Constant Bit rate : 256 kb/s Channel(s) : 2 channels Channel layout : L R Sampling rate : 48.0 kHz Frame rate : 31.250 FPS (1536 SPF) Compression mode : Lossy Stream size : 58.6 MiB (7%) Language : Russian Service kind : Complete Main Default : Yes Forced : No
[+] Скриншоты
Релиз от:

Всего файлов в раздаче: 3 
Ubojjnyjj.otpusk.S01.E01.WEB-DL.720p.ExKinoRay.mkv859.59 MB
Ubojjnyjj.otpusk.S01.E02.WEB-DL.720p.ExKinoRay.mkv647.11 MB
Ubojjnyjj.otpusk.S01.E03.WEB-DL.720p.ExKinoRay.mkv607.92 MB

Похожие раздачи по запросу - Убойный
Сегодня magnet Убойный отпуск / Третий в постели [01-05 из 07] (2024) WEB-DL 2160p от ExKinoRay | 4K | SDR 15.32 GB ↑ 0 ↓ 0
2024-07-20 magnet Убойный отпуск / Третий в постели [01х01-05 из 07] (2024) WEB-DLRip-AVC от Generalfilm | КПК 585.52 MB ↑ 0 ↓ 0
2024-07-20 magnet Убойный отпуск / Третий в постели [01-05 из 07] (2024) WEB-DLRip от Files-x 1.58 GB ↑ 1 ↓ 2
2024-07-18 magnet Убойный отпуск / Третий в постели [01-05 из 07] (2024) WEB-DL 720p от ExKinoRay 3.39 GB ↑ 0 ↓ 0
2024-07-18 magnet Убойный отпуск / Третий в постели [01-05 из 07] (2024) WEB-DL 1080p 4.03 GB ↑ 0 ↓ 1
2024-07-15 magnet Убойный отпуск / Третий в постели [01-04 из 07] (2024) WEB-DL 720p от ExKinoRay 2.73 GB ↑ 0 ↓ 0
2024-07-14 magnet Убойный отпуск / Третий в постели [01х01-04 из 07] (2024) WEB-DLRip-AVC от Generalfilm | КПК 471.58 MB ↑ 0 ↓ 0

Комментарии


Зарегистрируйтесь чтобы добавить комментарий
Торрент клиент
byTorrent - программа для загрузки торрент-файлов.

Скачать byTorrent.exe (1,5 МБ)

Скачать byTorrent.zip (0,6 МБ)

Поддержи torrent.by
российских рублей
(300 российских рублей это 4$)

Обратная связь rss

End game ©