↑↓torrent.by
Поиск
Логин:  Регистрация
Пароль:

Расплата / Цена / The Cost (2022) BDRip от New-Team | D

download Скачать торрент-файл   magnet Магнитная ссылка Размер: 1.46 GB Добавлен: 2024-07-06 05:00
Пиры будут получены из сети DHT
Последний сидер был замечен 2024-07-14 15:39
Расплата / Цена / The Cost Год выпуска: 2022 Выпущено: Австралия / RLC Motion Picture Entertainment, Two Tone Pictures, Bronte Pictures, La Rosa Productions Жанр: триллер, драма Режиссер: Мэттью Холмс / Matthew Holmes В ролях: Джордан Фрайзер-Трамбл, Дэймон Хантер, Кевин Ди, Клэйтон Уотсон, Кейт Спайкер, Надя Фрагнито, Марк Редпаф, Ники Пастор, Сотирис Целиос, Адам Вилсон О фильме: Троя, осуждённого за изнасилование и убийство девушки, внезапно освобождают из тюрьмы раньше положенного срока. Не согласные с таким решением муж и брат погибшей девушки решают свершить своё правосудие и организовывают похищение убийцы. Продолжительность: 01:51:10 Перевод: Профессиональный (полное дублирование) | Pride Production Субтитры: нет. Раздача от : Формат: AVI Качество: BDRip | The Cost 2023 1080p BluRay REMUX AVC DTS-HD MA 5 1-TRiToN Видео: 720x304 (2.35:1), 24.000 fps, XviD MPEG-4 ~ 1490 kbps avg, 0.284 bit/pixel, build 74 Аудио: 48 kHz, AC3 Dolby Digital, 3/2 (L,C,R,l,r) + LFE ch, ~ 384 kbps | RUS |
[+] MediaInfoОбщее Полное имя : D:TorrentsThe.Cost.2023.BDRip_от New-Team.avi Формат : AVI Формат/Информация : Audio Video Interleave Размер файла : 1,46 Гбайт Продолжительность : 1 ч. 51 м. Общий поток : 1 883 Кбит/сек Программа кодирования : VirtualDubMod 1.5.10.2 (build 2540/release) Библиотека кодирования : VirtualDubMod build 2540/release Видео Идентификатор : 0 Формат : MPEG-4 Visual Профиль формата : Advanced Simple@L5 Настройки формата : BVOP1 / Custom Matrix Параметр BVOP формата : 1 Параметр QPel формата : Нет Параметр GMC формата : Без точки перехода Параметр матрицы формата : Выборочная Идентификатор кодека : XVID Идентификатор кодека/Подсказка : XviD Продолжительность : 1 ч. 51 м. Битрейт : 1 490 Кбит/сек Ширина : 720 пикселей Высота : 304 пикселя Соотношение сторон : 2,35:1 Частота кадров : 24,000 кадра/сек Цветовое пространство : YUV Субдискретизация насыщенности : 4:2:0 Битовая глубина : 8 бит Тип развёртки : Прогрессивная Метод сжатия : С потерями Бит/(Пиксели*Кадры) : 0.284 Размер потока : 1,16 Гбайт (79%) Библиотека кодирования : XviD 74 Аудио Идентификатор : 1 Формат : AC-3 Формат/Информация : Audio Coding 3 Коммерческое название : Dolby Digital Идентификатор кодека : 2000 Продолжительность : 1 ч. 51 м. Вид битрейта : Постоянный Битрейт : 384 Кбит/сек Каналы : 6 каналов Channel layout : L R C LFE Ls Rs Частота : 48,0 КГц Частота кадров : 31,250 кадров/сек (1536 SPF) Метод сжатия : С потерями Размер потока : 305 Мбайт (20%) Выравнивание : Разделение по промежуткам Продолжительность промежутка : 42 мс. (1,00 видеокадр) Время предзагрузки промежутка : 500 мс. Service kind : Complete Main

Всего файлов в раздаче: 1 
The.Cost.2023.BDRip_от New-Team.avi1.46 GB

Похожие раздачи по запросу - Расплата
2024-07-13 magnet Расплата / Цена / The Cost (2022) BDRip 1080p от Generalfilm | D 7.45 GB ↑ 1 ↓ 0
2024-07-07 magnet Расплата / Цена / The Cost (2022) BDRip-AVC | D 1.46 GB ↑ 0 ↓ 0
2024-07-06 magnet Расплата / Цена / The Cost (2022) BDRip-AVC от DoMiNo & селезень | D | Pride Production 1.45 GB ↑ 0 ↓ 0
2024-07-06 magnet Расплата / Цена / The Cost (2022) BDRip 720p от DoMiNo & селезень | D | Pride Production 4.39 GB ↑ 0 ↓ 0
2024-07-05 magnet Расплата / Цена / The Cost (2022) WEB-DL 1080p | D 4.76 GB ↑ 0 ↓ 0
2024-06-29 magnet Расплата [S01] (2024) WEB-DLRip от Generalfilm | КПК 1.37 GB ↑ 0 ↓ 0
2024-06-27 magnet Расплата [S01] (2024) WEB-DLRip-AVC от Files-x 4.63 GB ↑ 0 ↓ 0

Комментарии


Зарегистрируйтесь чтобы добавить комментарий
Торрент клиент
byTorrent - программа для загрузки торрент-файлов.

Скачать byTorrent.exe (1,5 МБ)

Скачать byTorrent.zip (0,6 МБ)

Поддержи torrent.by
российских рублей
(300 российских рублей это 4$)

Обратная связь rss

End game ©