↑↓torrent.by
Поиск
Логин:  Регистрация
Пароль:

Тоска / Longing (2024) WEBRip-AVC | P | TVShows

download Скачать торрент-файл   magnet Магнитная ссылка Размер: 1.62 GB Добавлен: il68k 2024-07-06 10:00
Пиры будут получены из сети DHT
Последний сидер был замечен вчера в 08:30
Информация о фильме Название: Тоска Оригинальное название: Longing Год выхода: 2024 Жанр: драма, мелодрама Режиссер: Шаби Габизон В ролях: Ричард Гир, Сюзанн Клеман, Лиза Чуонг, Гордон Фултон, Карлос Хименес-Рауда, Майя Мисалевич, Ив Мюррэй, Ваня Гиусто, Мишель Жиру, Эван Булиунг О фильме: Дэниел, состоятельный холостяк за шестьдесят, узнает, что двадцать лет назад его бывшая девушка из Канады родила от него сына, но парень умер. Погружаясь в детали жизни своего покойного сына, знакомясь с его самыми близкими людьми, Дэниел переосмысливает собственную жизнь и тот выбор, из-за которого он оказался в этой точке. Страна: Канада Студия: Anamorphic Media, Current Flow Entertainment, Envision Media Arts, Scythia Films Продолжительность: 01:51:20 Перевод: Профессиональный (многоголосый закадровый) | TVShows Файл Кодек: Н.264 Качество: WEBRip-AVC Видео: MPEG-4 AVC, 1316 Kbps, 1024x428 (2.39:1), 23.976 fps, 0.125 bit/pixel, High@L4.1 Звук 1: 48 kHz, AC3 Dolby Digital, 3/2 (L, C, R, l, r) + LFE ch, ~384 kbps | TVShows Звук 2: 48 kHz, AC3 Dolby Digital, 3/2 (L, C, R, l, r) + LFE ch, ~384 kbps | Английский Субтитры: английские Семпл
[+] Скриншоты
[+] MediaInfo raw : 1024x428p 1:1 @ 24000/1001 fps (cfr) x264 : using SAR=1/1 x264 : using cpu capabilities: MMX2 SSE2Fast SSSE3 SSE4.2 AVX FMA3 BMI2 AVX2 x264 : profile High, level 4.1, 4:2:0, 8-bit x264 : frame I:1034 Avg QP:15.32 size: 63171 x264 : frame P:38000 Avg QP:16.85 size: 15674 x264 : frame B:121147 Avg QP:18.68 size: 3619 x264 : consecutive B-frames: 1.1% 3.4% 3.0% 60.5% 7.4% 20.0% 1.8% 1.8% 0.4% 0.3% 0.0% 0.2% 0.0% x264 : mb I I16..4: 8.2% 67.0% 24.8% x264 : mb P I16..4: 0.8% 4.1% 0.6% P16..4: 38.0% 26.5% 16.9% 0.0% 0.0% skip:13.0% x264 : mb B I16..4: 0.0% 0.3% 0.1% B16..8: 30.8% 8.7% 2.6% direct: 3.5% skip:54.1% L0:40.6% L1:46.2% BI:13.2% x264 : 8x8 transform intra:72.2% inter:47.9% x264 : direct mvs spatial:100.0% temporal:0.0% x264 : coded y, uvDC, uvAC intra: 89.7% 74.2% 58.0% inter: 17.0% 8.4% 4.6% x264 : i16 v, h, dc, p: 61% 11% 10% 19% x264 : i8 v, h, dc, ddl, ddr, vr, hd, vl, hu: 15% 11% 11% 8% 10% 11% 10% 11% 12% x264 : i4 v, h, dc, ddl, ddr, vr, hd, vl, hu: 18% 10% 4% 8% 13% 13% 12% 10% 11% x264 : i8c dc, h, v, p: 48% 22% 19% 11% x264 : Weighted P-Frames: Y:2.2% UV:1.0% x264 : ref P L0: 49.7% 8.9% 16.8% 5.4% 4.9% 3.1% 3.1% 1.4% 1.5% 1.1% 1.2% 0.9% 1.1% 0.9% 0.0% 0.0% x264 : ref B L0: 71.0% 12.1% 5.6% 3.1% 2.1% 1.7% 1.2% 0.8% 0.6% 0.6% 0.5% 0.4% 0.2% x264 : ref B L1: 94.8% 5.2% x264 : kb/s:1316.42 x264 : encoded 160181 frames, 16.34 fps, 1316.42 kb/s ============================================================== General Unique ID: 186031224994488945730863038709058892652 (0x8BF44F88C6C37A8380B1EB1DF8A5F36C) Complete name: D:\Toska.2024.WEB-DLRip.AVC.mkv Format: Matroska Format version: Version 4 File size: 1.62 GiB Duration: 1 h 51 min Overall bit rate: 2 087 kb/s Frame rate: 23.976 FPS Movie name: Longing (2024) WEB-DLRip-AVC _ vitolinform Encoded date: 2024-07-06 03:06:50 UTC Writing application: mkvmerge v85.0 ('Shame For You') 64-bit Writing library: libebml v1.4.5 + libmatroska v1.7.1 Attachments: poster.jpg / log.log Video ID: 1 Format: AVC Format/Info: Advanced Video Codec Format profile: High@L4.1 Format settings: CABAC / 14 Ref Frames Format settings, CABAC: Yes Format settings, Reference frames: 14 frames Codec ID: V_MPEG4/ISO/AVC Duration: 1 h 51 min Bit rate: 1 316 kb/s Width: 1 024 pixels Height: 428 pixels Display aspect ratio: 2.39:1 Frame rate mode: Constant Frame rate: 23.976 (24000/1001) FPS Color space: YUV Chroma subsampling: 4:2:0 Bit depth: 8 bits Scan type: Progressive Bits/(Pixel*Frame): 0.125 Stream size: 1.02 GiB (63%) Title: Тоска / Longing (2024) Writing library: x264 core 164 r3182 be4f020 Encoding settings: cabac=1 / ref=14 / deblock=1:-3:-3 / analyse=0x3:0x113 / me=umh / subme=10 / psy=1 / psy_rd=1.00:0.05 / mixed_ref=1 / me_range=32 / chroma_me=1 / trellis=2 / 8x8dct=1 / cqm=0 / deadzone=21, 11 / fast_pskip=0 / chroma_qp_offset=-3 / threads=12 / lookahead_threads=3 / sliced_threads=0 / nr=0 / decimate=0 / interlaced=0 / bluray_compat=0 / constrained_intra=0 / bframes=12 / b_pyramid=2 / b_adapt=2 / b_bias=0 / direct=3 / weightb=1 / open_gop=0 / weightp=2 / keyint=240 / keyint_min=24 / scenecut=40 / intra_refresh=0 / rc_lookahead=60 / rc=crf / mbtree=0 / crf=18.0 / qcomp=0.60 / qpmin=0 / qpmax=69 / qpstep=4 / vbv_maxrate=50000 / vbv_bufsize=62500 / crf_max=0.0 / nal_hrd=none / filler=0 / ip_ratio=1.40 / pb_ratio=1.30 / aq=1:1.00 Language: English Default: Yes Forced: No Color range: Limited Color primaries: BT.709 Transfer characteristics: BT.709 Matrix coefficients: BT.709 Audio #1 ID: 2 Format: AC-3 Format/Info: Audio Coding 3 Commercial name: Dolby Digital Codec ID: A_AC3 Duration: 1 h 51 min Bit rate mode: Constant Bit rate: 384 kb/s Channel(s): 6 channels Channel layout: L R C LFE Ls Rs Sampling rate: 48.0 kHz Frame rate: 31.250 FPS (1536 SPF) Compression mode: Lossy Stream size: 306 MiB (18%) Title: MVO | TVShows Language: Russian Service kind: Complete Main Default: Yes Forced: No Audio #2 ID: 3 Format: AC-3 Format/Info: Audio Coding 3 Commercial name: Dolby Digital Codec ID: A_AC3 Duration: 1 h 51 min Bit rate mode: Constant Bit rate: 384 kb/s Channel(s): 6 channels Channel layout: L R C LFE Ls Rs Sampling rate: 48.0 kHz Frame rate: 31.250 FPS (1536 SPF) Compression mode: Lossy Stream size: 306 MiB (18%) Title: English Language: English Service kind: Complete Main Default: No Forced: No Text ID: 4 Format: UTF-8 Codec ID: S_TEXT/UTF8 Codec ID/Info: UTF-8 Plain Text Duration: 1 h 42 min Bit rate: 69 b/s Frame rate: 0.297 FPS Count of elements: 1822 Stream size: 51.7 KiB (0%) Title: Full Language: English Default: No Forced: No
Rip by vitolinform

Всего файлов в раздаче: 1 
Toska.2024.WEB-DLRip.AVC.mkv1.62 GB

Похожие раздачи по запросу - Тоска
2024-07-06 magnet Тоска / Longing (2024) WEBRip 1080p от New-Team | P | TVShows 5.78 GB ↑ 0 ↓ 2
2024-07-05 magnet Тоска / Longing (2024) WEB-DLRip-AVC | L | RGB 1.57 GB ↑ 11 ↓ 0
2024-07-05 magnet Тоска / Longing (2024) WEB-DL 1080p | L | RGB 5.78 GB ↑ 6 ↓ 0

Комментарии


Зарегистрируйтесь чтобы добавить комментарий
Торрент клиент
byTorrent - программа для загрузки торрент-файлов.

Скачать byTorrent.exe (1,5 МБ)

Скачать byTorrent.zip (0,6 МБ)

Поддержи torrent.by
российских рублей
(300 российских рублей это 4$)

Обратная связь rss

End game ©