↑↓torrent.by
Поиск
Логин:  Регистрация
Пароль:

Криминальный город. Возмездие / Beomjoe dosi 4 / The Roundup: Punishment (2024) WEB-DLRip-AVC | L | RGB

download Скачать торрент-файл   magnet Магнитная ссылка Размер: 1.66 GB Раздают: 7 Качают: 1 Добавлен: il68k 2024-07-06 10:11
Пиры будут получены из сети DHT
Последний сидер был замечен сегодня в 16:20
Информация о фильме Название: Криминальный город. Возмездие Оригинальное название: Beomjoe dosi 4 / The Roundup: Punishment Год выхода: 2024 Жанр: криминал, боевик, детектив Режиссер: Хо Мён-хэн В ролях: Ма Дон-сок, Ким Му-ёль, Ли Дон-хви, Пак Чи-хван, Ли Бом-су, Ким Мин-джэ, Ли Джу-бин, Хён Бон-щик, Ли Джи-хун О фильме: Детектив Ма Сок-то создал отдел по борьбе с киберпреступлениями и пытается поймать организаторов крупнейшего в стране нелегального онлайн-казино. Страна: Южная Корея Студия: ABO Entertainment, B.A. Entertainment, Big Punch Pictures, Hong Film Продолжительность: 01:49:12 Перевод: Любительский (многоголосый закадровый) | RGB | 18+ Файл Кодек: Н.264 Качество: WEB-DLRip-AVC Видео: MPEG-4 AVC, 1789 Kbps, 1024x428 (2.39:1), 24.000 fps, 0.170 bit/pixel, High@L4.1 Звук 1: 48 kHz, AC3 Dolby Digital, 2/0 (L, R) ch, ~192 kbps | RGB (18+) Звук 2: 48 kHz, AC3 Dolby Digital, 2/0 (L, R) ch, ~192 kbps | Корейский Субтитры: английские, корейские Семпл
[+] Скриншоты
[+] MediaInfo raw : 1024x428p 1:1 @ 24/1 fps (cfr) x264 : using SAR=1/1 x264 : using cpu capabilities: MMX2 SSE2Fast SSSE3 SSE4.2 AVX FMA3 BMI2 AVX2 x264 : profile High, level 4.1, 4:2:0, 8-bit x264 : frame I:1549 Avg QP:15.03 size: 50635 x264 : frame P:39456 Avg QP:17.10 size: 19734 x264 : frame B:116257 Avg QP:19.48 size: 5232 x264 : consecutive B-frames: 3.2% 4.8% 12.8% 25.0% 34.8% 14.0% 3.2% 0.5% 0.3% 0.3% 0.2% 0.1% 0.9% x264 : mb I I16..4: 8.7% 65.5% 25.9% x264 : mb P I16..4: 2.8% 20.0% 3.8% P16..4: 32.2% 23.6% 11.8% 0.0% 0.0% skip: 5.7% x264 : mb B I16..4: 0.4% 2.0% 0.3% B16..8: 33.4% 11.9% 3.0% direct: 5.3% skip:43.6% L0:43.1% L1:40.2% BI:16.6% x264 : 8x8 transform intra:73.8% inter:56.7% x264 : direct mvs spatial:99.9% temporal:0.1% x264 : coded y, uvDC, uvAC intra: 73.2% 78.1% 63.5% inter: 18.5% 22.3% 12.0% x264 : i16 v, h, dc, p: 36% 22% 10% 32% x264 : i8 v, h, dc, ddl, ddr, vr, hd, vl, hu: 21% 17% 16% 5% 7% 8% 8% 8% 10% x264 : i4 v, h, dc, ddl, ddr, vr, hd, vl, hu: 24% 16% 9% 6% 9% 10% 9% 7% 8% x264 : i8c dc, h, v, p: 44% 25% 21% 10% x264 : Weighted P-Frames: Y:2.7% UV:0.9% x264 : ref P L0: 54.5% 10.9% 14.2% 4.8% 4.0% 2.6% 2.4% 1.3% 1.2% 1.0% 0.9% 0.7% 0.7% 0.7% 0.0% 0.0% x264 : ref B L0: 83.5% 7.7% 3.2% 1.4% 1.1% 0.8% 0.7% 0.4% 0.4% 0.3% 0.3% 0.2% 0.1% x264 : ref B L1: 97.1% 2.9% x264 : kb/s:1789.06 x264 : encoded 157262 frames, 12.49 fps, 1789.06 kb/s ==================================================================== General Unique ID: 279778820083333312533973591067745965409 (0xD27B70D45C96F8870E584F2070B1D561) Complete name: D:\Kriminalnyj.gorod.Vozmezdie.2024.WEB-DLRip.AVC.mkv Format: Matroska Format version: Version 4 File size: 1.66 GiB Duration: 1 h 49 min Overall bit rate: 2 175 kb/s Frame rate: 24.000 FPS Movie name: The Roundup: Punishment (2024) WEB-DLRip-AVC _ vitolinform Encoded date: 2024-07-05 11:52:25 UTC Writing application: mkvmerge v85.0 ('Shame For You') 64-bit Writing library: libebml v1.4.5 + libmatroska v1.7.1 Attachments: poster.jpg / log.log Video ID: 1 Format: AVC Format/Info: Advanced Video Codec Format profile: High@L4.1 Format settings: CABAC / 14 Ref Frames Format settings, CABAC: Yes Format settings, Reference frames: 14 frames Codec ID: V_MPEG4/ISO/AVC Duration: 1 h 49 min Bit rate: 1 789 kb/s Width: 1 024 pixels Height: 428 pixels Display aspect ratio: 2.39:1 Frame rate mode: Constant Frame rate: 24.000 FPS Color space: YUV Chroma subsampling: 4:2:0 Bit depth: 8 bits Scan type: Progressive Bits/(Pixel*Frame): 0.170 Stream size: 1.36 GiB (82%) Title: Криминальный город. Возмездие / Beomjoe dosi 4 / The Roundup: Punishment (2024) Writing library: x264 core 164 r3182 be4f020 Encoding settings: cabac=1 / ref=14 / deblock=1:-3:-3 / analyse=0x3:0x113 / me=umh / subme=10 / psy=1 / psy_rd=1.00:0.05 / mixed_ref=1 / me_range=32 / chroma_me=1 / trellis=2 / 8x8dct=1 / cqm=0 / deadzone=21, 11 / fast_pskip=0 / chroma_qp_offset=-3 / threads=12 / lookahead_threads=3 / sliced_threads=0 / nr=0 / decimate=0 / interlaced=0 / bluray_compat=0 / constrained_intra=0 / bframes=12 / b_pyramid=2 / b_adapt=2 / b_bias=0 / direct=3 / weightb=1 / open_gop=0 / weightp=2 / keyint=240 / keyint_min=24 / scenecut=40 / intra_refresh=0 / rc_lookahead=60 / rc=crf / mbtree=0 / crf=18.0 / qcomp=0.60 / qpmin=0 / qpmax=69 / qpstep=4 / vbv_maxrate=50000 / vbv_bufsize=62500 / crf_max=0.0 / nal_hrd=none / filler=0 / ip_ratio=1.40 / pb_ratio=1.30 / aq=1:1.00 Language: Korean Default: Yes Forced: No Color range: Limited Color primaries: BT.709 Transfer characteristics: BT.709 Matrix coefficients: BT.709 Audio #1 ID: 2 Format: AC-3 Format/Info: Audio Coding 3 Commercial name: Dolby Digital Codec ID: A_AC3 Duration: 1 h 49 min Bit rate mode: Constant Bit rate: 192 kb/s Channel(s): 2 channels Channel layout: L R Sampling rate: 48.0 kHz Frame rate: 31.250 FPS (1536 SPF) Compression mode: Lossy Stream size: 150 MiB (9%) Title: MVO | RGB | 18+ Language: Russian Service kind: Complete Main Default: Yes Forced: No Dialog Normalization: -31 dB compr: 4.22 dB mixlevel: 285 dB roomtyp: 3 ltrtcmixlev: -3.0 dB ltrtsurmixlev: -3.0 dB lorocmixlev: -3.0 dB lorosurmixlev: -3.0 dB dialnorm_Average: -31 dB dialnorm_Minimum: -31 dB dialnorm_Maximum: -31 dB Audio #2 ID: 3 Format: AC-3 Format/Info: Audio Coding 3 Commercial name: Dolby Digital Codec ID: A_AC3 Duration: 1 h 49 min Bit rate mode: Constant Bit rate: 192 kb/s Channel(s): 2 channels Channel layout: L R Sampling rate: 48.0 kHz Frame rate: 31.250 FPS (1536 SPF) Compression mode: Lossy Stream size: 150 MiB (9%) Title: Korean Language: Korean Service kind: Complete Main Default: No Forced: No Dialog Normalization: -31 dB compr: -0.28 dB dynrng: -4.30 dB dsurmod: Not Dolby Surround encoded mixlevel: 285 dB roomtyp: Small dialnorm_Average: -31 dB dialnorm_Minimum: -31 dB dialnorm_Maximum: -31 dB Text #1 ID: 4 Format: UTF-8 Codec ID: S_TEXT/UTF8 Codec ID/Info: UTF-8 Plain Text Duration: 1 h 42 min Bit rate: 45 b/s Frame rate: 0.238 FPS Count of elements: 1466 Stream size: 34.5 KiB (0%) Title: Full Language: English Default: No Forced: No Text #2 ID: 5 Format: UTF-8 Codec ID: S_TEXT/UTF8 Codec ID/Info: UTF-8 Plain Text Duration: 1 h 48 min Bit rate: 98 b/s Frame rate: 0.335 FPS Count of elements: 2177 Stream size: 78.2 KiB (0%) Title: Full Language: Korean Default: No Forced: No
Rip by vitolinform

Всего файлов в раздаче: 1 
Kriminalnyj.gorod.Vozmezdie.2024.WEB-DLRip.AVC.mkv1.66 GB

Похожие раздачи по запросу - Криминальный
2024-07-05 magnet Криминальный город. Возмездие / Beomjoe dosi 4 / The Roundup: Punishment (2024) WEB-DLRip 720p от DoMiNo | L | RGB 2.03 GB ↑ 0 ↓ 0
2024-07-05 magnet Криминальный город. Возмездие / Beomjoe dosi 4 / The Roundup: Punishment (2024) WEB-DLRip от JNS82 | L | RGB 1.46 GB ↑ 0 ↓ 1
2024-07-05 magnet Криминальный город / The Outlaws / Beomjoi dosi (2017) HDRip-AVC от DoMiNo & селезень | D 2.55 GB ↑ 0 ↓ 0
2024-07-04 magnet Криминальный город. Возмездие / Beomjoe dosi 4 / The Roundup: Punishment (2024) WEB-DLRip-AVC | L | RGB 1.46 GB ↑ 17 ↓ 1
2024-07-04 magnet Криминальный город. Возмездие / Beomjoe dosi 4 / The Roundup: Punishment (2024) WEB-DL 1080p | L | RGB 6.11 GB ↑ 76 ↓ 4
2024-07-04 magnet Дмитрий Найденов - Ушедшие 5, Криминальный клан (2024) МР3 412.33 MB ↑ 0 ↓ 0

Комментарии


Зарегистрируйтесь чтобы добавить комментарий
Торрент клиент
byTorrent - программа для загрузки торрент-файлов.

Скачать byTorrent.exe (1,5 МБ)

Скачать byTorrent.zip (0,6 МБ)

Поддержи torrent.by
российских рублей
(300 российских рублей это 4$)

Обратная связь rss

End game ©