↑↓torrent.by
Поиск
Логин:  Регистрация
Пароль:

Дом дракона / House of the Dragon [02x01 из 08] (2024) WEB-DL 1080p | D | Red Head Sound

download Скачать торрент-файл   magnet Магнитная ссылка Размер: 3.83 GB Раздают: 0 Качают: 1 Добавлен: 2024-07-06 11:00
Пиры будут получены из сети DHT
Последний сидер был замечен 2024-07-06 20:28
Название: Дом дракона Оригинальное название: House of the Dragon Год выхода: 2024 Жанр: Фэнтези, боевик, мелодрама, приключения, драма Режиссер: Алан Тейлор, Клер Килнер, Гита Патель, Андрий Парекх, Лони Перистер В ролях: Эмма Д`Арси, Мэтт Смит, Ив Бест, Оливия Кук, Рис Иванс, Соноя Мидзуно, Дэвид Хорович, Грэм МакТавиш, Билл Патерсон, Стив Туссэн, Уил Джонсон, Энтони Флэнеган, Эмили Кэри и др. Описание сериала: Продолжение эпической борьбы за Железный трон между «чёрными» и «зелёными» ветвями Таргариенов. Старший сын Рейниры, Джекейрис, отправится на Север, чтобы заручиться поддержкой Старков, а принц Деймон займётся захватом Харренхолла. В это время в другом стане Алисента попытается приструнить своего самоуверенного сына Эйгона, предвкушающего кровавую бойню. Страна: США Студия: Good Banana, HBO Продолжительность: ~01:00:00 Перевод: Дублированный (неофициальный) Red Head Sound Файл Формат: MKV Качество: WEB-DL (1080p) Видео: 1920x960 (2,000), 23,976 fps, AVC (х264), High@L4, ~9251 Kbps avg, 0.209 bit/pixel Аудио RUS: 48 kHz, AC3, 2/0 (L, R) ch, ~192 kbps avg
[+] MediaInfoОбщее Уникальный идентификатор : 250886976089182785328875789755253425769 (0xBCBF12F10DD306243AD71D7FAA8E8669) Полное имя : House.of.the.Dragon.2024.S02E01.WEB-DL.1080p.AMZN.RHS.mkv Формат : Matroska Версия формата : Version 4 Размер файла : 3,83 Гбайт Продолжительность : 58 мин. 5 с. Режим общего битрейта : Постоянный Общий битрейт : 9 445 Кбит/сек Частота кадров : 23,976 кадра/сек Дата кодирования : 2024-07-05 14:36:39 UTC Программа кодирования : mkvmerge v68.0.0 ('The Curtain') 64-bit Библиотека кодирования : libebml v1.4.2 + libmatroska v1.6.4 Видео Идентификатор : 1 Формат : AVC Формат/Информация : Advanced Video Codec Профиль формата : High@L4 Настройки формата : CABAC / 4 Ref Frames Параметр CABAC формата : Да Параметр RefFrames формата : 4 кадра Идентификатор кодека : V_MPEG4/ISO/AVC Продолжительность : 58 мин. 5 с. Вид битрейта : Постоянный Битрейт : 9 251 Кбит/сек Номинальный битрейт : 10 000 Кбит/сек Ширина : 1 920 пикселей Высота : 960 пикселей Соотношение сторон дисплея : 2,000 Режим частоты кадров : Постоянный Частота кадров : 23,976 (24000/1001) кадра/сек Цветовое пространство : YUV Цветовая субдискретизация : 4:2:0 Битовая глубина : 8 бит Тип развёртки : Прогрессивная Бит/(Пиксели*Кадры) : 0.209 Размер потока : 3,75 Гбайт (98%) Язык : Английский (US) По умолчанию : Да Принудительно : Нет Цветовой диапазон : Limited Основные цвета : BT.709 Характеристики трансфера : BT.709 Коэффициенты матрицы : BT.709 Аудио Идентификатор : 2 Формат : AC-3 Формат/Информация : Audio Coding 3 Коммерческое название : Dolby Digital Идентификатор кодека : A_AC3 Продолжительность : 58 мин. 3 с. Вид битрейта : Постоянный Битрейт : 192 Кбит/сек Канал(-ы) : 2 канала Расположение каналов : L R Частота дискретизации : 48,0 КГц Частота кадров : 31,250 кадров/сек (1536 SPF) Метод сжатия : С потерями Размер потока : 79,7 Мбайт (2%) Язык : Русский По умолчанию : Да Принудительно : Нет Нормализация звука речи : -31 dB dialnorm_Average : -31 dB dialnorm_Minimum : -31 dB dialnorm_Maximum : -31 dB Меню 00:00:00.200 : en:Scene 01 00:03:58.204 : en:Intro 00:05:43.101 : en:Scene 02
[+] Скриншоты

Всего файлов в раздаче: 1 
House.of.the.Dragon.2024.S02E01.WEB-DL.1080p.AMZN.RHS.mkv3.83 GB

Похожие раздачи по запросу - Дом
Вчера magnet Дом-ловушка / Accused (2023) BDRip от DoMiNo & селезень | D | Paragraph Media 1.38 GB ↑ 0 ↓ 0
Вчера magnet Дом-ловушка / Accused (2023) BDRip 1080p от Generalfilm | D 2.73 GB ↑ 0 ↓ 0
Вчера magnet Дом-ловушка / Accused (2023) BDRip 1080p от DoMiNo & селезень | D | Paragraph Media 4.56 GB ↑ 0 ↓ 0
Вчера magnet Дом-ловушка / Accused (2023) BDRip-AVC от New-Team | D 1.57 GB ↑ 0 ↓ 0
Вчера magnet Милый дом / Seuwiteuhom / Sweet Home [S01] (2020) WEB-DL 1080p | TVShows, LostFilm 30.67 GB ↑ 0 ↓ 2
Вчера magnet Дом-ловушка / Accused (2023) BDRip-AVC от DoMiNo & селезень | D | Paragraph Media 1.41 GB ↑ 0 ↓ 2
2024-07-20 magnet Дом-ловушка / Accused (2023) BDRip 1080p от MegaPeer | D 6.55 GB ↑ 0 ↓ 5

Комментарии


Зарегистрируйтесь чтобы добавить комментарий
Торрент клиент
byTorrent - программа для загрузки торрент-файлов.

Скачать byTorrent.exe (1,5 МБ)

Скачать byTorrent.zip (0,6 МБ)

Поддержи torrent.by
российских рублей
(300 российских рублей это 4$)

Обратная связь rss

End game ©