↑↓torrent.by
Поиск
Логин:  Регистрация
Пароль:

Пацаны / The Boys [04x01-06 из 08] (2024) UHD WEB-DL-HEVC 2160p | 4K | SDR | D, P, P2

download Скачать торрент-файл   magnet Магнитная ссылка Размер: 43.87 GB Добавлен: 2024-07-06 11:00
Пиры будут получены из сети DHT
Последний сидер был замечен 2024-07-09 12:48
Название: Пацаны Оригинальное название: The Boys Год выхода: 2024 Производство: США / Amazon Studios, Original Film, Point Grey Pictures Жанр: Фантастика, боевик, комедия, криминал Перевод: Дублированный (неофициальный), профессиональный многоголосый, профессиональный двухголосый Продолжительность: 06х ~01:00:00 Режиссёры: Филип Сгриккиа, Джулиан Холмс В ролях: Карл Урбан, Джек Куэйд, Энтони Старр, Эрин Мориарти, Джесси Ашер, Лаз Алонсо, Чейс Кроуфорд, Томер Капон, Карен Фукухара, Нэйтан Митчелл Описание: Действие сериала разворачивается в мире, где существуют супергерои. Именно они являются настоящими звёздами. Их все знают и обожают. Но за идеальным фасадом скрывается гораздо более мрачный мир наркотиков и секса, а большинство героев - в жизни не самые приятные люди. Для контроля за супергероями ЦРУ создаёт специальный отряд, неофициально известный как «Пацаны», суровые члены которого всегда готовы поставить зазнавшегося героя на место самым жестоким способом. Формат: MKV Качество: WEB-DL 2160p Видео: MPEGH HEVC / ~13.9 Mbps / 3840x1600 / 0.094 Бит/(Пиксели*Кадры) / 23.976 fps Аудио 01: AC-3, 2 ch, 384 kbps | Русский, MVO | HDRezka Studio | Серии 1-6 Аудио 02: AC-3, 2 ch, 192 kbps | Русский, MVO | Jaskier | Серии 1-5 Аудио 03: AC-3, 2 ch, 384 kbps | Русский, MVO | LostFilm | Серии 1-5 Аудио 04: AC-3, 6 ch, 384 kbps | Русский, MVO | TVShows | Серии 1-5 Аудио 05: AC-3, 2 ch, 384 kbps | Русский, DVO | Кубик в Кубе Серии 1-4 Аудио 06: AC-3, 2 ch, 192 kbps | Русский, DUB | Red Head Sound Серии 1-5 Аудио 07: E-AC-3, 6 ch, 640 kbps | Английский | Субтитры: Русские (Forced, Full), Английские (Forced, Full, SDH)
[+] MediainfoОбщее Уникальный идентификатор : 192324762874303433263481055556770143701 (0x90B066E8995A1C03CFBCB8D58DDF1DD5) Полное имя : E:РаздачиThe.Boys.S04.2160p.AMZN.WEB-DL.H.265.SDRThe.Boys.S04E01.Department.of.Dirty.Tricks.2160p.AMZN.WEB-DL.H.265.mkv Формат : Matroska Версия формата : Version 4 Размер файла : 7,58 Гбайт Продолжительность : 1 ч. 5 м. Общий поток : 16,7 Мбит/сек Частота кадров : 23,976 кадра/сек Дата кодирования : 2024-06-19 16:08:53 UTC Программа кодирования : mkvmerge v81.0 ('Milliontown') 64-bit Библиотека кодирования : libebml v1.4.4 + libmatroska v1.7.1 Видео Идентификатор : 1 Формат : HEVC Формат/Информация : High Efficiency Video Coding Профиль формата : Main@L5@Main Идентификатор кодека : V_MPEGH/ISO/HEVC Продолжительность : 1 ч. 5 м. Битрейт : 13,9 Мбит/сек Ширина : 3 840 пикселей Высота : 1 600 пикселей Соотношение сторон : 2,40:1 Режим частоты кадров : Постоянный Частота кадров : 23,976 (24000/1001) кадра/сек Цветовое пространство : YUV Субдискретизация насыщенности : 4:2:0 Битовая глубина : 8 бит Бит/(Пиксели*Кадры) : 0.094 Размер потока : 6,33 Гбайт (83%) Язык : English (US) Default : Да Forced : Нет Цветовой диапазон : Limited Основные цвета : BT.709 Характеристики трансфера : BT.709 Коэффициенты матрицы : BT.709 Аудио #1 Идентификатор : 2 Формат : AC-3 Формат/Информация : Audio Coding 3 Коммерческое название : Dolby Digital Идентификатор кодека : A_AC3 Продолжительность : 1 ч. 5 м. Вид битрейта : Постоянный Битрейт : 384 Кбит/сек Каналы : 2 канала Channel layout : L R Частота : 48,0 КГц Частота кадров : 31,250 кадров/сек (1536 SPF) Метод сжатия : С потерями Размер потока : 179 Мбайт (2%) Заголовок : MVO - HDRezka Язык : Russian Service kind : Complete Main Default : Да Forced : Нет Аудио #2 Идентификатор : 3 Формат : AC-3 Формат/Информация : Audio Coding 3 Коммерческое название : Dolby Digital Идентификатор кодека : A_AC3 Продолжительность : 1 ч. 5 м. Вид битрейта : Постоянный Битрейт : 384 Кбит/сек Каналы : 6 каналов Channel layout : L R C LFE Ls Rs Частота : 48,0 КГц Частота кадров : 31,250 кадров/сек (1536 SPF) Метод сжатия : С потерями Размер потока : 179 Мбайт (2%) Заголовок : MVO - Jaskier Язык : Russian Service kind : Complete Main Default : Нет Forced : Нет Аудио #3 Идентификатор : 4 Формат : AC-3 Формат/Информация : Audio Coding 3 Коммерческое название : Dolby Digital Идентификатор кодека : A_AC3 Продолжительность : 1 ч. 5 м. Вид битрейта : Постоянный Битрейт : 384 Кбит/сек Каналы : 2 канала Channel layout : L R Частота : 48,0 КГц Частота кадров : 31,250 кадров/сек (1536 SPF) Метод сжатия : С потерями Размер потока : 179 Мбайт (2%) Заголовок : MVO - LostFilm Язык : Russian Service kind : Complete Main Default : Нет Forced : Нет Аудио #4 Идентификатор : 5 Формат : AC-3 Формат/Информация : Audio Coding 3 Коммерческое название : Dolby Digital Идентификатор кодека : A_AC3 Продолжительность : 1 ч. 5 м. Вид битрейта : Постоянный Битрейт : 384 Кбит/сек Каналы : 6 каналов Channel layout : L R C LFE Ls Rs Частота : 48,0 КГц Частота кадров : 31,250 кадров/сек (1536 SPF) Метод сжатия : С потерями Размер потока : 179 Мбайт (2%) Заголовок : MVO - TVShows Язык : Russian Service kind : Complete Main Default : Нет Forced : Нет Аудио #5 Идентификатор : 6 Формат : AC-3 Формат/Информация : Audio Coding 3 Коммерческое название : Dolby Digital Идентификатор кодека : A_AC3 Продолжительность : 1 ч. 5 м. Вид битрейта : Постоянный Битрейт : 384 Кбит/сек Каналы : 2 канала Channel layout : L R Частота : 48,0 КГц Частота кадров : 31,250 кадров/сек (1536 SPF) Метод сжатия : С потерями Размер потока : 179 Мбайт (2%) Заголовок : DVO - Кубик в кубе Язык : Russian Service kind : Complete Main Default : Нет Forced : Нет Аудио #6 Идентификатор : 7 Формат : AC-3 Формат/Информация : Audio Coding 3 Коммерческое название : Dolby Digital Идентификатор кодека : A_AC3 Продолжительность : 1 ч. 5 м. Вид битрейта : Постоянный Битрейт : 192 Кбит/сек Каналы : 2 канала Channel layout : L R Частота : 48,0 КГц Частота кадров : 31,250 кадров/сек (1536 SPF) Метод сжатия : С потерями Размер потока : 89,4 Мбайт (1%) Заголовок : DUB - Red Head Sound Язык : Russian Service kind : Complete Main Default : Нет Forced : Нет Аудио #7 Идентификатор : 8 Формат : E-AC-3 Формат/Информация : Enhanced AC-3 Коммерческое название : Dolby Digital Plus Идентификатор кодека : A_EAC3 Продолжительность : 1 ч. 5 м. Вид битрейта : Постоянный Битрейт : 640 Кбит/сек Каналы : 6 каналов Channel layout : L R C LFE Ls Rs Частота : 48,0 КГц Частота кадров : 31,250 кадров/сек (1536 SPF) Метод сжатия : С потерями Размер потока : 298 Мбайт (4%) Язык : English (US) Service kind : Complete Main Default : Нет Forced : Нет Текст #1 Идентификатор : 9 Формат : UTF-8 Идентификатор кодека : S_TEXT/UTF8 Идентификатор кодека/Информация : UTF-8 Plain Text Продолжительность : 58 м. 53 с. Битрейт : 4 бит/сек Частота кадров : 0,012 кадр/сек Count of elements : 42 Размер потока : 1,95 Кбайт (0%) Заголовок : Rus (Forced) Язык : Russian Default : Да Forced : Нет Текст #2 Идентификатор : 10 Формат : UTF-8 Идентификатор кодека : S_TEXT/UTF8 Идентификатор кодека/Информация : UTF-8 Plain Text Продолжительность : 1 ч. 1 м. Битрейт : 100 бит/сек Частота кадров : 0,226 кадр/сек Count of elements : 830 Размер потока : 45,3 Кбайт (0%) Заголовок : Rus (Full) Язык : Russian (RU) Default : Нет Forced : Нет Текст #3 Идентификатор : 11 Формат : UTF-8 Идентификатор кодека : S_TEXT/UTF8 Идентификатор кодека/Информация : UTF-8 Plain Text Продолжительность : 14 м. 51 с. Битрейт : 2 бит/сек Частота кадров : 0,016 кадр/сек Count of elements : 14 Размер потока : 295 байт (0%) Заголовок : Forced Язык : English (US) Default : Нет Forced : Нет Текст #4 Идентификатор : 12 Формат : UTF-8 Идентификатор кодека : S_TEXT/UTF8 Идентификатор кодека/Информация : UTF-8 Plain Text Продолжительность : 1 ч. 1 м. Битрейт : 69 бит/сек Частота кадров : 0,242 кадр/сек Count of elements : 888 Размер потока : 31,1 Кбайт (0%) Язык : English (US) Default : Нет Forced : Нет Текст #5 Идентификатор : 13 Формат : UTF-8 Идентификатор кодека : S_TEXT/UTF8 Идентификатор кодека/Информация : UTF-8 Plain Text Продолжительность : 1 ч. 1 м. Битрейт : 77 бит/сек Частота кадров : 0,280 кадр/сек Count of elements : 1027 Размер потока : 34,9 Кбайт (0%) Заголовок : SDH Язык : English (US) Default : Нет Forced : Нет Меню 00:00:00.000 : en:Scene 1 00:00:06.000 : en:Recap 00:01:50.000 : en:Scene 2 00:59:13.000 : en:End Credits
[+] Скриншоты

Всего файлов в раздаче: 6 
The.Boys.S04E01.Department.of.Dirty.Tricks.2160p.AMZN.WEB-DL.H.265.RGzsRutracker.mkv7.58 GB
The.Boys.S04E02.Life.Among.the.Septics.2160p.AMZN.WEB-DL.H.265.RGzsRutracker.mkv7.21 GB
The.Boys.S04E03.Well.Keep.the.Red.Flag.Flying.Here.2160p.AMZN.WEB-DL.H.265.RGzsRutracker.mkv6.93 GB
The.Boys.S04E04.Wisdom.of.the.Ages.2160p.AMZN.WEB-DL.H.265.RGzsRutracker.mkv7.64 GB
The.Boys.S04E05.Beware.the.Jabberwock.My.Son.2160p.AMZN.WEB-DL.H.265.RGzsRutracker.mkv7.69 GB
The.Boys.S04E06.Dirty.Business.2160p.AMZN.WEB-DL.H.265.RGzsRutracker.mkv6.82 GB

Похожие раздачи по запросу - Пацаны
Сегодня magnet Пацаны / The Boys [S04] (2024) UHD WEB-DL-HEVC 2160p | 4K | SDR | D, P, P2 62.04 GB ↑ 0 ↓ 8
Вчера magnet Пацаны / The Boys [S04] (2024) WEB-DL 720p | D, P, P2 19.74 GB ↑ 0 ↓ 7
2024-07-22 magnet Пацаны / The Boys [S04] (2024) UHD WEB-DL-HEVC 2160p | 4K | HDR | D, P, P2 58.34 GB ↑ 0 ↓ 4
2024-07-22 magnet Пацаны / The Boys [S04] (2024) WEB-DL 1080p | D | Red Head Sound 29.89 GB ↑ 0 ↓ 18
2024-07-20 magnet Пацаны / The Boys [S04] (2024) WEB-DLRip-AVC | HDrezka Studio, NewStudio 7.94 GB ↑ 0 ↓ 2
2024-07-20 magnet Пацаны / The Boys [S04] (2024) WEB-DL 1080p | D, P, P2 37.58 GB ↑ 0 ↓ 18
2024-07-20 magnet Пацаны / The Boys [S04] (2024) UHD WEB-DL-HEVC 2160p | 4K | HDR | D, P, P2 57.88 GB ↑ 0 ↓ 7

Комментарии


Зарегистрируйтесь чтобы добавить комментарий
Торрент клиент
byTorrent - программа для загрузки торрент-файлов.

Скачать byTorrent.exe (1,5 МБ)

Скачать byTorrent.zip (0,6 МБ)

Поддержи torrent.by
российских рублей
(300 российских рублей это 4$)

Обратная связь rss

End game ©