↑↓torrent.by
Поиск
Логин:  Регистрация
Пароль:

И снова здравствуйте!! [03x01 из 10] (2024) WEB-DL-HEVC 2160p от ExKinoRay | 4K | SDR

download Скачать торрент-файл   magnet Магнитная ссылка Размер: 3.63 GB Добавлен: 2024-07-06 11:00
Пиры будут получены из сети DHT
Последний сидер был замечен 2024-07-06 11:00
Информация о фильме Название: И снова здравствуйте! Год выхода: 2024 Жанр: Комедия, криминал Режиссер: Егор Чичканов В ролях: Андрей Мерзликин, Денис Власенко, Павел Чинарёв, Аглая Тарасова, Любовь Толкалина, Сергей Годин, Кирилл Жандаров, Татьяна Струженкова, Дмитрий Журавлёв (IV), Михаил Полицеймако, Полина Гухман, Николай Наумов, Игорь Миркурбанов, Илья Любимов О фильме: Борис хочет довести дело до конца — убить Колю и вернуть свои деньги. Но самого Бориса и его близких преследует Иностранец, чтобы отомстить за гибель брата. Защищая своих, Борис чувствует, что к нему возвращается жизнь, он снова может ощущать вкус и боль — он становится человеком. Но из-за этого с каждым разом ему все тяжелее воскресать. Борису нужно сделать выбор: остаться неуязвимым или снова стать простым смертным. Однако самое важное испытание, которое ему предстоит пройти – наладить контакт с дочерью, которая не хочет видеть отца, оставившего ее в детском доме. Страна: Россия Студия: IVI Originals, Медиаслово Продолжительность: 1 х ~ 00:30:00 Язык: Русский Файл Кодек: MPEG-H HEVC Качество: WEB-DL-HEVC 2160p | 4K | SDR Видео: MPEG-H HEVC, ~ 18 Mбит/с, 3840x2160, 10 бит Звук: E-AC3, 6 ch, 448 кбит/с Субтитры: Русские (Full, SDH) Релиз от: Реклама, любого вида, отсутствует.
[+] MediaInfoGeneral Complete name : I.snova.zdravstvujte.S03.2024.WEB-DL.SDR.2160p.ExKinoRayI.snova.zdravstvujte.S03.E01.2024.WEB-DL.SDR.2160p.ExKinoRay.mkv Format : Matroska Format version : Version 4 File size : 3.63 GiB Duration : 28 min 9 s Overall bit rate : 18.5 Mb/s Frame rate : 25.000 FPS Encoded date : 2024-07-04 15:03:37 UTC Writing application : mkvmerge v56.1.0 ('My Friend') 64-bit Writing library : libebml v1.4.2 + libmatroska v1.6.4 Video ID : 1 Format : HEVC Format/Info : High Efficiency Video Coding Format profile : Main 10@L5@High Codec ID : V_MPEGH/ISO/HEVC Duration : 28 min 9 s Bit rate : 18.0 Mb/s Width : 3 840 pixels Height : 2 160 pixels Display aspect ratio : 16:9 Frame rate mode : Constant Frame rate : 25.000 FPS Color space : YUV Chroma subsampling : 4:2:0 Bit depth : 10 bits Bits/(Pixel*Frame) : 0.087 Stream size : 3.54 GiB (98%) Writing library : x265 2.6: 10bit Encoding settings : cpuid=1173503 / frame-threads=6 / wpp / no-pmode / no-pme / no-psnr / no-ssim / log-level=2 / input-csp=1 / input-res=3840x2160 / interlace=0 / total-frames=0 / level-idc=50 / high-tier=1 / uhd-bd=0 / ref=3 / no-allow-non-conformance / repeat-headers / annexb / no-aud / no-hrd / info / hash=0 / no-temporal-layers / no-open-gop / min-keyint=50 / keyint=50 / bframes=3 / b-adapt=2 / b-pyramid / bframe-bias=0 / rc-lookahead=20 / lookahead-slices=8 / scenecut=0 / no-intra-refresh / ctu=64 / min-cu-size=8 / no-rect / no-amp / max-tu-size=32 / tu-inter-depth=1 / tu-intra-depth=1 / limit-tu=0 / rdoq-level=0 / dynamic-rd=0.00 / no-ssim-rd / signhide / no-tskip / nr-intra=0 / nr-inter=0 / constrained-intra / strong-intra-smoothing / max-merge=2 / limit-refs=3 / no-limit-modes / me=1 / subme=2 / merange=80 / temporal-mvp / weightp / no-weightb / no-analyze-src-pics / deblock=0:0 / sao / no-sao-non-deblock / rd=3 / no-early-skip / rskip / no-fast-intra / no-tskip-fast / no-cu-lossless / no-b-intra / no-splitrd-skip / rdpenalty=0 / psy-rd=2.00 / psy-rdoq=0.00 / no-rd-refine / analysis-reuse-mode=0 / no-lossless / cbqpoffs=0 / crqpoffs=0 / rc=abr / bitrate=20000 / qcomp=0.60 / qpstep=4 / stats-write=0 / stats-read=0 / vbv-maxrate=30000 / vbv-bufsize=60000 / vbv-init=0.9 / ipratio=1.40 / pbratio=1.30 / aq-mode=1 / aq-strength=1.00 / cutree / zone-count=0 / no-strict-cbr / qg-size=32 / no-rc-grain / qpmax=69 / qpmin=0 / no-const-vbv / sar=1 / overscan=0 / videoformat=5 / range=0 / colorprim=2 / transfer=2 / colormatrix=2 / chromaloc=0 / display-window=0 / max-cll=0,0 / min-luma=0 / max-luma=1023 / log2-max-poc-lsb=8 / vui-timing-info / vui-hrd-info / slices=1 / no-opt-qp-pps / no-opt-ref-list-length-pps / no-multi-pass-opt-rps / scenecut-bias=0.05 / no-opt-cu-delta-qp / no-aq-motion / no-hdr / no-hdr-opt / no-dhdr10-opt / analysis-reuse-level=5 / scale-factor=0 / refine-intra=0 / refine-inter=0 / refine-mv=0 / no-limit-sao / ctu-info=0 / no-lowpass-dct / refine-mv-type=0 / copy-pic=1 Language : Russian Default : Yes Forced : No Color range : Limited Audio ID : 2 Format : E-AC-3 Format/Info : Enhanced AC-3 Commercial name : Dolby Digital Plus Codec ID : A_EAC3 Duration : 28 min 9 s Bit rate mode : Constant Bit rate : 448 kb/s Channel(s) : 6 channels Channel layout : L R C LFE Ls Rs Sampling rate : 48.0 kHz Frame rate : 31.250 FPS (1536 SPF) Compression mode : Lossy Stream size : 90.2 MiB (2%) Language : Russian Service kind : Complete Main Default : Yes Forced : No Text #1 ID : 3 Format : UTF-8 Codec ID : S_TEXT/UTF8 Codec ID/Info : UTF-8 Plain Text Duration : 24 min 29 s Bit rate : 114 b/s Frame rate : 0.238 FPS Count of elements : 350 Stream size : 20.5 KiB (0%) Language : Russian Default : No Forced : No Text #2 ID : 4 Format : UTF-8 Codec ID : S_TEXT/UTF8 Codec ID/Info : UTF-8 Plain Text Duration : 24 min 49 s Bit rate : 122 b/s Frame rate : 0.272 FPS Count of elements : 405 Stream size : 22.2 KiB (0%) Title : SDH Language : Russian Default : No Forced : No
[+] Скриншоты

Всего файлов в раздаче: 1 
I.snova.zdravstvujte.S03.E01.2024.WEB-DL.SDR.2160p.ExKinoRay.mkv3.63 GB

Похожие раздачи по запросу - снова
2024-07-20 magnet И снова здравствуйте! [03х01-03 из 10] (2024) WEB-DLRip от Files-x 1.04 GB ↑ 0 ↓ 0
2024-07-18 magnet И снова здравствуйте! [03x01-03 из 10] (2024) WEB-DL 1080p от ExKinoRay 3.24 GB ↑ 0 ↓ 0
2024-07-18 magnet И снова здравствуйте! [03x01-03 из 10] (2024) WEBRip-HEVC 1440p от ExKinoRay | SDR 2.97 GB ↑ 0 ↓ 0
2024-07-14 magnet И снова здравствуйте! [03х01-02 из 10] (2024) WEB-DLRip-AVC от Generalfilm | КПК 246.72 MB ↑ 0 ↓ 0
2024-07-12 magnet И снова здравствуйте! [03х01-02 из 10] (2024) WEB-DLRip от Files-x 765.53 MB ↑ 0 ↓ 0
2024-07-11 magnet И снова здравствуйте! [03x01-02 из 10] (2024) WEB-DL 1080p от ExKinoRay 2.29 GB ↑ 0 ↓ 0
2024-07-11 magnet И снова здравствуйте! [03х01-02 из 10] (2024) WEB-DLRip-AVC от Files-х 797.65 MB ↑ 0 ↓ 0

Комментарии


Зарегистрируйтесь чтобы добавить комментарий
Торрент клиент
byTorrent - программа для загрузки торрент-файлов.

Скачать byTorrent.exe (1,5 МБ)

Скачать byTorrent.zip (0,6 МБ)

Поддержи torrent.by
российских рублей
(300 российских рублей это 4$)

Обратная связь rss

End game ©