↑↓torrent.by
Поиск
Логин:  Регистрация
Пароль:

Наследник / Потомок / Gwigongja / Gwi-gong-ja / The Childe (2023) BDRip 1080p от Generalfilm | D

download Скачать торрент-файл   magnet Магнитная ссылка Размер: 11.92 GB Добавлен: 2024-07-06 11:00
Пиры будут получены из сети DHT
Последний сидер был замечен 2024-07-06 11:00
Наследник / Потомок / Gwigongja / Gwi-gong-ja / The Childe Информация о фильме Год выпуска: 2023 Страна: Южная Корея Студия: Next Entertainment World, Goldmoon Film Жанр: боевик, криминал Перевод: Дублированный | Велес Продолжительность: 01:58:19 Субтитры: Русские | Forced Режиссер: Пак Хун-джон В ролях: Ким Сон-хо, Кан Тхэ-джу, Ким Ган-у, Ко А-ра, Квон Хёк-хён, Джастин Джон Харви О фильме: Молодой боксёр Марко Хан — так называемый копино, корейско-филиппинских кровей — всю жизнь прожил на Филиппинах и никогда не видел отца-корейца. Его мать тяжело больна, поэтому, пытаясь накопить на лечение, парень хватается за любые возможности заработка и разыскивает корейских родственников. Однажды на него выходят адвокаты, утверждающие, что его богатый папа наконец-то нашёл потерянную кровиночку и жаждет встречи. Марко летит в Корею, но уже в самолёте парня начинает запугивать странный тип, называющий себя его другом. Качество: BDRip 1080p Формат: MKV Видео: MPEG-4 AVC, 1920x800 (2.40:1), 23,976 fps, 14.0 Mb/s (0.380 bit/pixel) Аудио: русский, AC3, 5.1, 48 kHz, 448 kbps | Велес Навигация по главам: есть Релиз от:
[+] ОтчетМедиаИнфо General Unique ID : 199154431835264396171347156593685611789 (0x95D3BF96058032E3932FC3B6D75CC50D) Complete name : E:GFThe.Childe.2023.BDRip.1080p.Rip.by.HardwareMining.R.G.Generalfilm.mkv Format : Matroska Format version : Version 4 File size : 11.9 GiB Duration : 1 h 58 min Overall bit rate : 14.4 Mb/s Frame rate : 23.976 FPS Movie name : The.Childe.2023.BDRip.1080p.Rip.by.HardwareMining.R.G.Generalfilm Encoded date : 2024-07-03 16:10:07 UTC Writing application : mkvmerge v6.8.0 ('Theme for Great Cities') 32bit built on Mar 2 2014 21:27:07 Writing library : libebml v1.3.0 + libmatroska v1.4.1 Cover : Yes Attachments : cover.png Video ID : 1 Format : AVC Format/Info : Advanced Video Codec Format profile : High@L4.1 Format settings : CABAC / 4 Ref Frames Format settings, CABAC : Yes Format settings, Reference frames : 4 frames Codec ID : V_MPEG4/ISO/AVC Duration : 1 h 58 min Bit rate : 14.0 Mb/s Width : 1 920 pixels Height : 800 pixels Display aspect ratio : 2.40:1 Frame rate mode : Constant Frame rate : 23.976 FPS Color space : YUV Chroma subsampling : 4:2:0 Bit depth : 8 bits Scan type : Progressive Bits/(Pixel*Frame) : 0.380 Stream size : 11.3 GiB (95%) Writing library : x264 core 130 r2273 b3065e6 Encoding settings : cabac=1 / ref=4 / deblock=1:-2:-1 / analyse=0x3:0x133 / me=umh / subme=10 / psy=1 / psy_rd=1.00:0.08 / mixed_ref=1 / me_range=32 / chroma_me=1 / trellis=2 / 8x8dct=1 / cqm=0 / deadzone=21,11 / fast_pskip=0 / chroma_qp_offset=-3 / threads=48 / lookahead_threads=6 / sliced_threads=0 / nr=0 / decimate=1 / interlaced=0 / bluray_compat=0 / constrained_intra=0 / bframes=11 / b_pyramid=2 / b_adapt=2 / b_bias=0 / direct=3 / weightb=1 / open_gop=0 / weightp=2 / keyint=250 / keyint_min=25 / scenecut=40 / intra_refresh=0 / rc=2pass / mbtree=0 / bitrate=14000 / ratetol=1.0 / qcomp=0.60 / qpmin=0 / qpmax=69 / qpstep=4 / cplxblur=20.0 / qblur=0.5 / ip_ratio=1.40 / pb_ratio=1.30 / aq=2:1.00 Language : English Default : Yes Forced : No Color range : Limited Color primaries : BT.709 Transfer characteristics : BT.709 Matrix coefficients : BT.709 Audio ID : 2 Format : AC-3 Format/Info : Audio Coding 3 Commercial name : Dolby Digital Codec ID : A_AC3 Duration : 1 h 58 min Bit rate mode : Constant Bit rate : 448 kb/s Channel(s) : 6 channels Channel layout : L R C LFE Ls Rs Sampling rate : 48.0 kHz Frame rate : 31.250 FPS (1536 SPF) Compression mode : Lossy Stream size : 379 MiB (3%) Title : Dub | Велес Language : Russian Service kind : Complete Main Default : Yes Forced : No Dialog Normalization : -24 dB compr : -0.28 dB cmixlev : -3.0 dB surmixlev : -3 dB mixlevel : 285 dB roomtyp : 3 ltrtcmixlev : -3.0 dB ltrtsurmixlev : -3.0 dB lorocmixlev : -3.0 dB lorosurmixlev : -4.5 dB dialnorm_Average : -24 dB dialnorm_Minimum : -24 dB dialnorm_Maximum : -24 dB Text ID : 3 Format : UTF-8 Codec ID : S_TEXT/UTF8 Codec ID/Info : UTF-8 Plain Text Title : Forced Language : Russian Default : No Forced : No Menu 00:00:00.000 : Chapter 01 00:10:30.380 : Chapter 02 00:21:44.970 : Chapter 03 00:30:14.312 : Chapter 04 00:44:57.820 : Chapter 05 00:56:43.609 : Chapter 06 01:04:49.094 : Chapter 07 01:17:07.248 : Chapter 08 01:24:46.790 : Chapter 09 01:34:57.191 : Chapter 10 01:46:24.420 : Chapter 11 01:53:32.264 : Chapter 12 01:58:18.967 : Chapter 13
[+] Скриншоты

Всего файлов в раздаче: 1 
The.Childe.2023.BDRip.1080p.Rip.by.HardwareMining.R.G.Generalfilm.mkv11.92 GB

Похожие раздачи по запросу - Наследник
2024-07-09 magnet Алекс Ключевской (Леха) - Незаконный наследник 8. Путь к власти. Том 2 (2024) МP3 379.35 MB ↑ 0 ↓ 0
2024-07-03 magnet Наследник / Потомок / Gwigongja / The Childe (2023) BDRip 1080p | D, P 16.34 GB ↑ 0 ↓ 0
2024-07-03 magnet Наследник / Потомок / Gwigongja / The Childe (2023) BDRip от MegaPeer | D 1.46 GB ↑ 0 ↓ 0
2024-07-03 magnet Наследник / Потомок / Gwigongja / Gwi-gong-ja / The Childe (2023) BDRip 720p от DoMiNo & селезень | D, P, A 6.70 GB ↑ 0 ↓ 0
2024-06-28 magnet Алекс Ключевской (Леха) - Незаконный наследник 7, Путь к власти. Том 1 (2024) МP3 280.91 MB ↑ 0 ↓ 0
2024-06-15 magnet Алекс Ключевской (Лёха) - Незаконный наследник 6, Стать прочнее (2024) МР3 376.12 MB ↑ 0 ↓ 0

Комментарии


Зарегистрируйтесь чтобы добавить комментарий
Торрент клиент
byTorrent - программа для загрузки торрент-файлов.

Скачать byTorrent.exe (1,5 МБ)

Скачать byTorrent.zip (0,6 МБ)

Поддержи torrent.by
российских рублей
(300 российских рублей это 4$)

Обратная связь rss

End game ©