↑↓torrent.by
Поиск
Логин:  Регистрация
Пароль:

Orden Ogan - The Order Of Fear [24Bit, Hi-Res] (2024) FLAC

download Скачать торрент-файл   magnet Магнитная ссылка Размер: 689.40 MB Добавлен: 2024-07-06 11:00
Пиры будут получены из сети DHT
Последний сидер был замечен 2024-07-08 19:00
Orden Ogan - The Order Of Fear (2024) Жанр: Power-metal, Folk-metal Издание: Reigning Phoenix Music Источник: ссылка Продолжительность: 00:48:10 Кодек: FLAC 24/44.1 Битрейт: Lossless|WEB-DL Тип рипа: tracks Треклист: 01. Kings of the Underworld (3:58) 02. The Order Of Fear (4:26) 03. Moon Fire (4:14) 04. Conquest (4:12) 05. Blind Man (3:52) 06. Prince Of Sorrow (4:02) 07. Dread Lord (3:33) 08. My Worst Enemy (3:28) 09. Anthem to the Darkside (7:10) 10. The Journey Thus Far (0:54) 11. The Long Darkness (8:21)
[+] Отчёт DR: -------------------------------------------------------------------------------- Analyzed: Orden Ogan / The Order Of Fear -------------------------------------------------------------------------------- DR Peak RMS Duration Track -------------------------------------------------------------------------------- DR4 -0.31 dB -5.51 dB 3:58 01-Kings of the Underworld DR5 -0.35 dB -6.35 dB 4:26 02-The Order Of Fear DR5 -0.31 dB -6.26 dB 4:14 03-Moon Fire DR5 -0.31 dB -6.72 dB 4:12 04-Conquest DR5 -0.31 dB -6.41 dB 3:52 05-Blind Man DR5 -0.31 dB -6.13 dB 4:02 06-Prince Of Sorrow DR5 -0.31 dB -6.44 dB 3:33 07-Dread Lord DR6 -0.36 dB -8.24 dB 3:28 08-My Worst Enemy DR5 -0.31 dB -7.15 dB 7:10 09-Anthem to the Darkside DR8 -2.49 dB -12.05 dB 0:54 10-The Journey Thus Far DR5 -0.31 dB -7.27 dB 8:21 11-The Long Darkness -------------------------------------------------------------------------------- Number of tracks: 11 Official DR value: DR5 Samplerate: 44100 Hz Channels: 2 Bits per sample: 24 Bitrate: 1710 kbps Codec: FLAC ================================================================================
[+] Отчёт Mi: Format : FLAC Format/Info : Free Lossless Audio Codec File size : 51.8 MiB Duration : 3 min 57 s Overall bit rate mode : Variable Overall bit rate : 1 826 kb/s Album : The Order Of Fear Album/Performer : Orden Ogan Part : 1 Part/Total : 1 Track name : Kings of the Underworld Track name/Position : 1 Track name/Total : 11 Performer : Orden Ogan Composer : Sebastian Levermann / Dirk Meyer-Berhorn / Niels Löffler Producer : Reigning Phoenix Music Label : Reigning Phoenix Music Genre : Metal Recorded date : 2024-07-05 ISRC : DE1KY2402532 Copyright : © 2024 Reigning Phoenix Music ℗ 2024 Reigning Phoenix Music Cover : Yes Cover type : Cover (front) Cover MIME : image/jpeg PRODUCER : Sebastian Levermann INVOLVEDPEOPLE : Orden Ogan, MainArtist - Sebastian Levermann, Composer, Lyricist, Producer - Dirk Meyer-Berhorn, Composer - Niels Löffler, Composer UPC : 4262464730190 MEDIATYPE : album ITUNESADVISORY : 0 URL : https://www.qobuz.com/fr-fr/album/the-order-of-fear-orden-ogan/xgb5p8iz66hsc Audio Format : FLAC Format/Info : Free Lossless Audio Codec Duration : 3 min 57 s Bit rate mode : Variable Bit rate : 1 822 kb/s Channel(s) : 2 channels Channel layout : L R Sampling rate : 44.1 kHz Bit depth : 24 bits Compression mode : Lossless Stream size : 51.7 MiB (100%) General Complete name : C:Deemix MusicOrden OganThe Order Of FearFLAC (24bit-44.1kHz)

Всего файлов в раздаче: 12 
01 Kings of the Underworld.flac59.62 MB
02 The Order Of Fear.flac64.07 MB
03 Moon Fire.flac60.73 MB
04 Conquest.flac58.88 MB
05 Blind Man.flac57.01 MB
06 Prince Of Sorrow.flac59.47 MB
07 Dread Lord.flac53.01 MB
08 My Worst Enemy.flac49.89 MB
09 Anthem to the Darkside.flac96.46 MB
10 The Journey Thus Far.flac18.02 MB
Показать все файлы

Похожие раздачи по запросу - Orden
Вчера magnet Новый порядок / Nuevo orden (2020) BDRip-AVC от DoMiNo | D, P | iTunes 2.14 GB ↑ 0 ↓ 0
Вчера magnet Новый порядок / Nuevo orden (2020) BDRip-AVC от DoMiNo | D | iTunes 744.11 MB ↑ 0 ↓ 0

Комментарии


Зарегистрируйтесь чтобы добавить комментарий
Торрент клиент
byTorrent - программа для загрузки торрент-файлов.

Скачать byTorrent.exe (1,5 МБ)

Скачать byTorrent.zip (0,6 МБ)

Поддержи torrent.by
российских рублей
(300 российских рублей это 4$)

Обратная связь rss

End game ©