↑↓torrent.by
Поиск
Логин:  Регистрация
Пароль:

Пацаны / The Boys [04x01-06 из 08] (2024) UHD WEB-DL-HEVC 2160p | 4K | HDR | D, P, P2

download Скачать торрент-файл   magnet Магнитная ссылка Размер: 42.79 GB Добавлен: 2024-07-06 11:00
Пиры будут получены из сети DHT
Последний сидер был замечен 2024-07-06 11:00
Название: Пацаны Оригинальное название: The Boys Год выхода: 2024 Производство: США / Amazon Studios, Original Film, Point Grey Pictures Жанр: Фантастика, боевик, комедия, криминал Перевод: Дублированный (неофициальный), профессиональный многоголосый, профессиональный двухголосый Продолжительность: 06х ~01:00:00 Режиссёры: Филип Сгриккиа, Джулиан Холмс В ролях: Карл Урбан, Джек Куэйд, Энтони Старр, Эрин Мориарти, Джесси Ашер, Лаз Алонсо, Чейс Кроуфорд, Томер Капон, Карен Фукухара, Нэйтан Митчелл Описание: Действие сериала разворачивается в мире, где существуют супергерои. Именно они являются настоящими звёздами. Их все знают и обожают. Но за идеальным фасадом скрывается гораздо более мрачный мир наркотиков и секса, а большинство героев - в жизни не самые приятные люди. Для контроля за супергероями ЦРУ создаёт специальный отряд, неофициально известный как «Пацаны», суровые члены которого всегда готовы поставить зазнавшегося героя на место самым жестоким способом. Формат: MKV Качество: WEB-DL 2160p Видео: MPEGH HEVC / ~13.7 Mbps / 3840x1600 / 0.093 Бит/(Пиксели*Кадры) / 23.976 fps Аудио 01: AC-3, 2 ch, 384 kbps | Русский, MVO | HDRezka Studio | 18+ | Серии 1-6 Аудио 02: AC-3, 2 ch, 384 kbps | Русский, DVO | Кубик в Кубе | 18+ | Серии 1-4 Аудио 03: AC-3, 2 ch, 384 kbps | Русский, MVO | LostFilm | Серии 1-5 Аудио 04: AC-3, 6 ch, 384 kbps | Русский, MVO | TVShows | Серии 1-5 Аудио 05: AC-3, 2 ch, 192 kbps | Русский, DUB | Red Head Sound | 18+ | Серии 1-5 Аудио 06: E-AC-3, 6 ch, 640 kbps | Английский | Субтитры: Русские (Forced, Full), Английские (Forced, Full, SDH)
[+] MediainfoGeneral Unique ID : 252040551057381876592897433635876292067 (0xBD9D3E942707C9A82CBFDF63FBA4C5E3) Complete name : The.Boys.S04E01.Department.of.Dirty.Tricks.2160p.AMZN.WEB-DL.HDR.H.265-FLUX.mkv Format : Matroska Format version : Version 4 File size : 7.33 GiB Duration : 1 h 5 min Overall bit rate : 16.1 Mb/s Frame rate : 23.976 FPS Encoded date : 2024-06-26 07:56:04 UTC Writing application : mkvmerge v82.0 ('I'm The President') 64-bit Writing library : libebml v1.4.5 + libmatroska v1.7.1 Video ID : 1 Format : HEVC Format/Info : High Efficiency Video Coding Format profile : Main 10@L5@Main HDR format : SMPTE ST 2094 App 4, Version 1, HDR10+ Profile B compatible Codec ID : V_MPEGH/ISO/HEVC Duration : 1 h 5 min Bit rate : 13.7 Mb/s Width : 3 840 pixels Height : 1 600 pixels Display aspect ratio : 2.40:1 Frame rate mode : Constant Frame rate : 23.976 (24000/1001) FPS Color space : YUV Chroma subsampling : 4:2:0 Bit depth : 10 bits Bits/(Pixel*Frame) : 0.093 Stream size : 6.25 GiB (85%) Language : English (US) Default : Yes Forced : No Color range : Limited Color primaries : BT.2020 Transfer characteristics : PQ Matrix coefficients : BT.2020 non-constant Mastering display color primaries : Display P3 Mastering display luminance : min: 0.0001 cd/m2, max: 1000 cd/m2 Maximum Content Light Level : 460 cd/m2 Maximum Frame-Average Light Level : 198 cd/m2 Audio #1 ID : 2 Format : AC-3 Format/Info : Audio Coding 3 Commercial name : Dolby Digital Codec ID : A_AC3 Duration : 1 h 5 min Bit rate mode : Constant Bit rate : 384 kb/s Channel(s) : 2 channels Channel layout : L R Sampling rate : 48.0 kHz Frame rate : 31.250 FPS (1536 SPF) Compression mode : Lossy Stream size : 179 MiB (2%) Title : MVO 18+ Language : Russian Service kind : Complete Main Default : Yes Forced : No Audio #2 ID : 3 Format : AC-3 Format/Info : Audio Coding 3 Commercial name : Dolby Digital Codec ID : A_AC3 Duration : 1 h 5 min Bit rate mode : Constant Bit rate : 384 kb/s Channel(s) : 2 channels Channel layout : L R Sampling rate : 48.0 kHz Frame rate : 31.250 FPS (1536 SPF) Compression mode : Lossy Stream size : 179 MiB (2%) Title : DVO 18+ Language : Russian Service kind : Complete Main Default : No Forced : No Audio #3 ID : 4 Format : AC-3 Format/Info : Audio Coding 3 Commercial name : Dolby Digital Codec ID : A_AC3 Duration : 1 h 5 min Bit rate mode : Constant Bit rate : 384 kb/s Channel(s) : 2 channels Channel layout : L R Sampling rate : 48.0 kHz Frame rate : 31.250 FPS (1536 SPF) Compression mode : Lossy Stream size : 179 MiB (2%) Title : MVO Language : Russian Service kind : Complete Main Default : No Forced : No Audio #4 ID : 5 Format : AC-3 Format/Info : Audio Coding 3 Commercial name : Dolby Digital Codec ID : A_AC3 Duration : 1 h 5 min Bit rate mode : Constant Bit rate : 384 kb/s Channel(s) : 6 channels Channel layout : L R C LFE Ls Rs Sampling rate : 48.0 kHz Frame rate : 31.250 FPS (1536 SPF) Compression mode : Lossy Stream size : 179 MiB (2%) Title : MVO Language : Russian Service kind : Complete Main Default : No Forced : No Audio #5 ID : 6 Format : AC-3 Format/Info : Audio Coding 3 Commercial name : Dolby Digital Codec ID : A_AC3 Duration : 1 h 5 min Bit rate mode : Constant Bit rate : 192 kb/s Channel(s) : 2 channels Channel layout : L R Sampling rate : 48.0 kHz Frame rate : 31.250 FPS (1536 SPF) Compression mode : Lossy Stream size : 89.4 MiB (1%) Title : Dub 18+ Language : Russian Service kind : Complete Main Default : No Forced : No Audio #6 ID : 7 Format : E-AC-3 Format/Info : Enhanced AC-3 Commercial name : Dolby Digital Plus Codec ID : A_EAC3 Duration : 1 h 5 min Bit rate mode : Constant Bit rate : 640 kb/s Channel(s) : 6 channels Channel layout : L R C LFE Ls Rs Sampling rate : 48.0 kHz Frame rate : 31.250 FPS (1536 SPF) Compression mode : Lossy Stream size : 298 MiB (4%) Title : Original Language : English (US) Service kind : Complete Main Default : No Forced : No Text #1 ID : 8 Format : UTF-8 Codec ID : S_TEXT/UTF8 Codec ID/Info : UTF-8 Plain Text Duration : 58 min 53 s Bit rate : 4 b/s Frame rate : 0.012 FPS Count of elements : 42 Stream size : 1.95 KiB (0%) Title : Forced Language : Russian Default : Yes Forced : No Text #2 ID : 9 Format : UTF-8 Codec ID : S_TEXT/UTF8 Codec ID/Info : UTF-8 Plain Text Duration : 1 h 1 min Bit rate : 100 b/s Frame rate : 0.226 FPS Count of elements : 830 Stream size : 45.3 KiB (0%) Title : Full Language : Russian (RU) Default : No Forced : No Text #3 ID : 10 Format : UTF-8 Codec ID : S_TEXT/UTF8 Codec ID/Info : UTF-8 Plain Text Duration : 14 min 51 s Bit rate : 2 b/s Frame rate : 0.016 FPS Count of elements : 14 Stream size : 295 Bytes (0%) Title : Forced Language : English (US) Default : No Forced : No Text #4 ID : 11 Format : UTF-8 Codec ID : S_TEXT/UTF8 Codec ID/Info : UTF-8 Plain Text Duration : 1 h 1 min Bit rate : 69 b/s Frame rate : 0.242 FPS Count of elements : 888 Stream size : 31.1 KiB (0%) Title : Full Language : English (US) Default : No Forced : No Text #5 ID : 12 Format : UTF-8 Codec ID : S_TEXT/UTF8 Codec ID/Info : UTF-8 Plain Text Duration : 1 h 1 min Bit rate : 77 b/s Frame rate : 0.280 FPS Count of elements : 1027 Stream size : 34.9 KiB (0%) Title : SDH Language : English (US) Default : No Forced : No Menu 00:00:00.000 : en:Scene 1 00:00:06.000 : en:Recap 00:01:50.000 : en:Scene 2 00:59:13.000 : en:End Credits
[+] Скриншоты

Всего файлов в раздаче: 6 
The.Boys.S04E01.Department.of.Dirty.Tricks.2160p.AMZN.WEB-DL.HDR.H.265-FLUX-RGzsRutracker.mkv7.33 GB
The.Boys.S04E02.Life.Among.the.Septics.2160p.AMZN.WEB-DL.HDR.H.265-FLUX-RGzsRutracker.mkv6.96 GB
The.Boys.S04E03.Well.Keep.the.Red.Flag.Flying.Here.2160p.AMZN.WEB-DL.HDR.H.265-FLUX-RGzsRutracker.mkv6.76 GB
The.Boys.S04E04.Wisdom.of.the.Ages.2160p.AMZN.WEB-DL.HDR.H.265-FLUX-RGzsRutracker.mkv7.48 GB
The.Boys.S04E05.Beware.the.Jabberwock.My.Son.2160p.AMZN.WEB-DL.HDR.H.265-FLUX-RGzsRutracker.mkv7.51 GB
The.Boys.S04E06.Dirty.Business.2160p.AMZN.WEB-DL.HDR.H.265-FLUX-RGzsRutracker.mkv6.74 GB

Похожие раздачи по запросу - Пацаны
Вчера magnet Пацаны / The Boys [S04] (2024) WEB-DLRip-AVC | HDrezka Studio, NewStudio 7.94 GB ↑ 0 ↓ 6
Вчера magnet Пацаны / The Boys [S04] (2024) WEB-DL 1080p | D, P, P2 37.58 GB ↑ 0 ↓ 54
Вчера magnet Пацаны / The Boys [S04] (2024) UHD WEB-DL-HEVC 2160p | 4K | HDR | D, P, P2 57.88 GB ↑ 0 ↓ 19
2024-07-19 magnet Пацаны / The Boys [S04] (2024) WEBRip от Kerob | L 5.06 GB ↑ 0 ↓ 0
2024-07-19 magnet Пацаны / The Boys [S04] (2024) WEB-DL-HEVC 2160p от Kerob | 4K | HDR | L 65.49 GB ↑ 0 ↓ 8
2024-07-19 magnet Пацаны / The Boys [01-04x01-31 из 32] (2019-2024) WEB-DLRip | Кубик в кубе 25.97 GB ↑ 0 ↓ 6
2024-07-18 magnet Пацаны / The Boys [04x01-07 из 08] (2024) WEB-DL 1080p | D | Red Head Sound 25.75 GB ↑ 0 ↓ 0

Комментарии


Зарегистрируйтесь чтобы добавить комментарий
Торрент клиент
byTorrent - программа для загрузки торрент-файлов.

Скачать byTorrent.exe (1,5 МБ)

Скачать byTorrent.zip (0,6 МБ)

Поддержи torrent.by
российских рублей
(300 российских рублей это 4$)

Обратная связь rss

End game ©