↑↓torrent.by
Поиск
Логин:  Регистрация
Пароль:

Тоска / Longing (2024) WEBRip 1080p от New-Team | P | TVShows

download Скачать торрент-файл   magnet Магнитная ссылка Размер: 5.78 GB Раздают: 0 Качают: 1 Добавлен: 2024-07-06 11:00
Пиры будут получены из сети DHT
Последний сидер был замечен 2024-07-21 00:03
Тоска / Longing Год выпуска: 2024 Выпущено: Канада / Anamorphic Media, Current Flow Entertainment, Envision Media Arts Жанр: драма, комедия Режиссер: Шаби Габизон / Savi Gabizon В ролях: Диана Крюгер, Ричард Гир, Марни Макфейл, Шона МакДональд, Ларри Дэй, Сюзанна Клеман, Стюарт Хьюз, Уэйн Бёрнс, Джессика Клемент, Томасо Санелли, Алекс Ивановичи, Кристина Сонг, Джессика Робертс (II), Кэти Джой О фильме: Бизнес-магнат сталкивается со своей бывшей девушкой из провинции, когда она приезжает в большой город, и узнает, что у них родился ребенок, о котором он не подозревал. Продолжительность: 01:51:20 Перевод: Профессиональный (многоголосый, закадровый) | TVShows Субтитры: Английские Раздача от : Формат: MKV Качество: WEBRip 1080p Видео: MPEG-4 AVC, (2,40:1), 1920x802, 6657 Кбит/с, 23,976 fps Аудио #1: 48 kHz, AC3 Dolby Digital, 3/2 (L,C,R,l,r) + LFE ch, ~ 384 kbps | RUS | Аудио #2: 48 kHz, AC3 Dolby Digital, 3/2 (L,C,R,l,r) + LFE ch, ~ 384 kbps | ENG |
[+] MediaInfoОбщее Уникальный идентификатор : 27984128448390528725731775324217858013 (0x150D8C0E64D649139C16E3853D9AD7DD) Полное имя : D:TorrentsLonging.2024.1080p.WEBRip_от New-Team.mkv Формат : Matroska Версия формата : Version 4 Размер файла : 5,78 Гбайт Продолжительность : 1 ч. 51 м. Общий поток : 7 427 Кбит/сек Название фильма : Longing.2024.1080p.WEBRip_от New-Team Дата кодирования : UTC 2024-07-05 16:09:24 Программа кодирования : mkvmerge v79.0 ('Funeral Pyres') 64-bit Библиотека кодирования : libebml v1.4.4 + libmatroska v1.7.1 Видео Идентификатор : 1 Формат : AVC Формат/Информация : Advanced Video Codec Профиль формата : High@L4 Настройки формата : CABAC / 5 Ref Frames Параметр CABAC формата : Да Параметр RefFrames формата : 5 кадров Идентификатор кодека : V_MPEG4/ISO/AVC Продолжительность : 1 ч. 51 м. Битрейт : 6 657 Кбит/сек Ширина : 1 920 пикселей Высота : 802 пикселя Соотношение сторон : 2,40:1 Режим частоты кадров : Постоянный Частота кадров : 23,976 (24000/1001) кадра/сек Цветовое пространство : YUV Субдискретизация насыщенности : 4:2:0 Битовая глубина : 8 бит Тип развёртки : Прогрессивная Бит/(Пиксели*Кадры) : 0.180 Размер потока : 5,18 Гбайт (90%) Заголовок : RGB Язык : English Default : Да Forced : Нет Цветовой диапазон : Limited Основные цвета : BT.709 Характеристики трансфера : BT.709 Коэффициенты матрицы : BT.709 Аудио #1 Идентификатор : 2 Формат : AC-3 Формат/Информация : Audio Coding 3 Коммерческое название : Dolby Digital Идентификатор кодека : A_AC3 Продолжительность : 1 ч. 51 м. Вид битрейта : Постоянный Битрейт : 384 Кбит/сек Каналы : 6 каналов Channel layout : L R C LFE Ls Rs Частота : 48,0 КГц Частота кадров : 31,250 кадров/сек (1536 SPF) Метод сжатия : С потерями Размер потока : 306 Мбайт (5%) Заголовок : MVO - TVShows Язык : Russian Service kind : Complete Main Default : Да Forced : Нет Аудио #2 Идентификатор : 3 Формат : AC-3 Формат/Информация : Audio Coding 3 Коммерческое название : Dolby Digital Идентификатор кодека : A_AC3 Продолжительность : 1 ч. 51 м. Вид битрейта : Постоянный Битрейт : 384 Кбит/сек Каналы : 6 каналов Channel layout : L R C LFE Ls Rs Частота : 48,0 КГц Частота кадров : 31,250 кадров/сек (1536 SPF) Метод сжатия : С потерями Размер потока : 306 Мбайт (5%) Заголовок : Original Язык : English Service kind : Complete Main Default : Нет Forced : Нет Текст Идентификатор : 4 Формат : UTF-8 Идентификатор кодека : S_TEXT/UTF8 Идентификатор кодека/Информация : UTF-8 Plain Text Продолжительность : 1 ч. 42 м. Битрейт : 69 бит/сек Count of elements : 1822 Размер потока : 51,7 Кбайт (0%) Заголовок : Язык : English Default : Нет Forced : Нет

Всего файлов в раздаче: 1 
Longing.2024.1080p.WEBRip_от New-Team.mkv5.78 GB

Похожие раздачи по запросу - Тоска
2024-07-06 magnet Тоска / Longing (2024) WEBRip-AVC | P | TVShows 1.62 GB ↑ 0 ↓ 0
2024-07-05 magnet Тоска / Longing (2024) WEB-DLRip-AVC | L | RGB 1.57 GB ↑ 7 ↓ 0
2024-07-05 magnet Тоска / Longing (2024) WEB-DL 1080p | L | RGB 5.78 GB ↑ 8 ↓ 0

Комментарии


Зарегистрируйтесь чтобы добавить комментарий
Торрент клиент
byTorrent - программа для загрузки торрент-файлов.

Скачать byTorrent.exe (1,5 МБ)

Скачать byTorrent.zip (0,6 МБ)

Поддержи torrent.by
российских рублей
(300 российских рублей это 4$)

Обратная связь rss

End game ©