↑↓torrent.by
Поиск
Логин:  Регистрация
Пароль:

Расплата / Цена / The Cost (2022) BDRip 720p от DoMiNo & селезень | D | Pride Production

download Скачать торрент-файл   magnet Магнитная ссылка Размер: 4.39 GB Добавлен: 2024-07-06 11:00
Пиры будут получены из сети DHT
Последний сидер был замечен 2024-07-11 14:29
Информация о фильме Название: Расплата / Цена Оригинальное название: The Cost Год выпуска: 2022 Жанр: триллер, драма Режиссер: Мэттью Холмс / Matthew Holmes В ролях: Джордан Фрайзер-Трамбл, Дэймон Хантер, Кевин Ди, Клэйтон Уотсон, Кейт Спайкер, Надя Фрагнито, Марк Редпаф, Ники Пастор, Сотирис Целиос, Адам Вилсон О фильме: В 2004 году девушка по имени Стефани была изнасилована и жестоко убита Троем. За чудовищное преступление тот получил 32 года тюремного заключения. Но спустя 10 лет жестокий убийца оказался на свободе по УДО. Несправедливость закона шокировала Дэвида и Аарона, мужа и брата несчастной жертвы, чьи жизни трагедия навсегда разделила на до и после. Не желая мириться с ситуацией, герои решают претворить в жизнь план мести, который вынашивался долгие годы. Выпущено: Австралия / RLC Motion Picture Entertainment, Two Tone Pictures, Bronte Pictures, La Rosa Productions Продолжительность: 01:51:10 Перевод: Профессиональный (полное дублирование) | Pride Production Субтитры: Английские (Full, SDH) Файл Формат: Matroska Качество: BDRip 720p Исходник: The Cost 2023 1080p BluRay REMUX AVC DTS-HD MA 5 1-TRiToN Видео: 1280x536 at 24.000 fps, x264@L4.1, ~4625 kbps Аудио 1: AC3, 6 ch, ~384 kbps - | Русский | Аудио 2: AC3, 6 ch, ~640 kbps - | Английский | Формат субтитров: softsub (SRT) ***Рип от: -=DoMiNo=-
[+] M/IGeneral Unique ID : 12547731451363365996424546295098439887 (0x9709AECA8B9A3DB8BDAB7F3943CF8CF) Complete name : L:The.Cost.2022.DUB.BDRip.720p.x264.seleZen.mkv Format : Matroska Format version : Version 4 File size : 4.39 GiB Duration : 1 h 51 min Overall bit rate : 5 651 kb/s Frame rate : 24.000 FPS Movie name : The.Cost.2022.DUB.BDRip.720p.x264.seleZen Encoded date : 2024-07-05 19:14:46 UTC Writing application : mkvmerge v85.0 ('Shame For You') 64-bit Writing library : libebml v1.4.5 + libmatroska v1.7.1 Cover : Yes Attachments : cover.jpg / small_cover.jpg Video ID : 1 Format : AVC Format/Info : Advanced Video Codec Format profile : High@L4.1 Format settings : CABAC / 12 Ref Frames Format settings, CABAC : Yes Format settings, Reference : 12 frames Codec ID : V_MPEG4/ISO/AVC Duration : 1 h 51 min Bit rate : 4 625 kb/s Width : 1 280 pixels Height : 536 pixels Display aspect ratio : 2.39:1 Frame rate mode : Constant Frame rate : 24.000 FPS Color space : YUV Chroma subsampling : 4:2:0 Bit depth : 8 bits Scan type : Progressive Bits/(Pixel*Frame) : 0.281 Stream size : 3.59 GiB (82%) Title : -=DoMiNo=- Writing library : x264 core 164 r3191 -DoMiNo Encoding settings : cabac=1 / ref=12 / deblock=1:-3:-2 / analyse=0x3:0x133 / me=umh / subme=10 / psy=1 / psy_rd=1.05:0.05 / mixed_ref=1 / me_range=32 / chroma_me=1 / trellis=2 / 8x8dct=1 / cqm=0 / deadzone=21,11 / fast_pskip=0 / chroma_qp_offset=-3 / threads=17 / lookahead_threads=4 / sliced_threads=0 / nr=0 / decimate=1 / interlaced=0 / bluray_compat=0 / constrained_intra=0 / bframes=10 / b_pyramid=2 / b_adapt=2 / b_bias=0 / direct=3 / weightb=1 / open_gop=0 / weightp=2 / keyint=240 / keyint_min=24 / scenecut=40 / intra_refresh=0 / rc_lookahead=60 / rc=crf / mbtree=0 / crf=16.8 / qcomp=0.60 / qpmin=0 / qpmax=69 / qpstep=4 / vbv_maxrate=50000 / vbv_bufsize=62500 / crf_max=0.0 / nal_hrd=none / filler=0 / ip_ratio=1.40 / pb_ratio=1.30 / aq=1:0.80 Language : English Default : Yes Forced : No Color range : Limited Color primaries : BT.709 Transfer characteristics : BT.709 Matrix coefficients : BT.709 Audio #1 ID : 2 Format : AC-3 Format/Info : Audio Coding 3 Commercial name : Dolby Digital Codec ID : A_AC3 Duration : 1 h 51 min Bit rate mode : Constant Bit rate : 384 kb/s Channel(s) : 6 channels Channel layout : L R C LFE Ls Rs Sampling rate : 48.0 kHz Frame rate : 31.250 FPS (1536 SPF) Compression mode : Lossy Stream size : 305 MiB (7%) Title : Dub - Pride Production Language : Russian Service kind : Complete Main Default : Yes Forced : No Dialog Normalization : -31 dB cmixlev : -4.5 dB surmixlev : -6 dB dialnorm_Average : -31 dB dialnorm_Minimum : -31 dB dialnorm_Maximum : -31 dB Audio #2 ID : 3 Format : AC-3 Format/Info : Audio Coding 3 Commercial name : Dolby Digital Codec ID : A_AC3 Duration : 1 h 51 min Bit rate mode : Constant Bit rate : 640 kb/s Channel(s) : 6 channels Channel layout : L R C LFE Ls Rs Sampling rate : 48.0 kHz Frame rate : 31.250 FPS (1536 SPF) Compression mode : Lossy Stream size : 509 MiB (11%) Title : Original Language : English Service kind : Complete Main Default : No Forced : No Dialog Normalization : -31 dB cmixlev : -4.5 dB surmixlev : -6 dB dialnorm_Average : -31 dB dialnorm_Minimum : -31 dB dialnorm_Maximum : -31 dB Text #1 ID : 4 Format : UTF-8 Codec ID : S_TEXT/UTF8 Codec ID/Info : UTF-8 Plain Text Duration : 1 h 43 min Bit rate : 39 b/s Frame rate : 0.195 FPS Count of elements : 1208 Stream size : 30.0 KiB (0%) Title : Full Language : English Default : No Forced : No Text #2 ID : 5 Format : UTF-8 Codec ID : S_TEXT/UTF8 Codec ID/Info : UTF-8 Plain Text Duration : 1 h 47 min Bit rate : 44 b/s Frame rate : 0.228 FPS Count of elements : 1480 Stream size : 35.2 KiB (0%) Title : SDH Language : English Default : No Forced : No Menu 00:00:00.000 : en:Chapter 01 00:09:27.958 : en:Chapter 02 00:19:14.125 : en:Chapter 03 00:30:58.000 : en:Chapter 04 00:41:22.333 : en:Chapter 05 00:52:07.750 : en:Chapter 06 01:00:37.000 : en:Chapter 07 01:10:07.292 : en:Chapter 08 01:24:26.458 : en:Chapter 09 01:32:43.917 : en:Chapter 10 01:42:24.375 : en:Chapter 11 01:47:46.000 : en:Chapter 12
Релиз: Присоединяйся к: Кликай на баннеры.

Всего файлов в раздаче: 1 
The.Cost.2022.DUB.BDRip.720p.x264.seleZen.mkv4.39 GB

Похожие раздачи по запросу - Расплата
2024-07-13 magnet Расплата / Цена / The Cost (2022) BDRip 1080p от Generalfilm | D 7.45 GB ↑ 0 ↓ 0
2024-07-07 magnet Расплата / Цена / The Cost (2022) BDRip-AVC | D 1.46 GB ↑ 0 ↓ 0
2024-07-06 magnet Расплата / Цена / The Cost (2022) BDRip-AVC от DoMiNo & селезень | D | Pride Production 1.45 GB ↑ 0 ↓ 0
2024-07-06 magnet Расплата / Цена / The Cost (2022) BDRip от New-Team | D 1.46 GB ↑ 0 ↓ 0
2024-07-05 magnet Расплата / Цена / The Cost (2022) WEB-DL 1080p | D 4.76 GB ↑ 0 ↓ 0
2024-06-29 magnet Расплата [S01] (2024) WEB-DLRip от Generalfilm | КПК 1.37 GB ↑ 0 ↓ 0
2024-06-27 magnet Расплата [S01] (2024) WEB-DLRip-AVC от Files-x 4.63 GB ↑ 0 ↓ 0

Комментарии


Зарегистрируйтесь чтобы добавить комментарий
Торрент клиент
byTorrent - программа для загрузки торрент-файлов.

Скачать byTorrent.exe (1,5 МБ)

Скачать byTorrent.zip (0,6 МБ)

Поддержи torrent.by
российских рублей
(300 российских рублей это 4$)

Обратная связь rss

End game ©