↑↓torrent.by
Поиск
Логин:  Регистрация
Пароль:

За год до смерти я встретил тебя / Drawing Closer (2024) WEB-DLRip-AVC | L | Синема УС

download Скачать торрент-файл   magnet Магнитная ссылка Размер: 2.04 GB Раздают: 1 Качают: 0 Добавлен: il68k 2024-07-06 14:10
Пиры будут получены из сети DHT
Последний сидер был замечен сегодня в 18:58
Информация о фильме Название: За год до смерти я встретил тебя Оригинальное название: Drawing Closer Год выхода: 2024 Жанр: драма, мелодрама Режиссер: Такахиро Мики В ролях: Рэн Нагасэ, Нацуки Дэгути, Маю Ёкота, Фумино Кимура, Нэнэ Оцука, Тору Накамура, Ясуко Мацуюки, Икухо Акия, Рэн Ханами, Кэндзи Мидзухаси О фильме: Фильм основан на романе Мориты Аои о трагической и мимолетной любви. Акито – талантливый начинающий художник, который усердно работает, чтобы попасть на выставку. Но врачи обнаруживают у него опухоль, и жить ему осталось всего один год. Он замыкается в себе, но однажды на крыше больницы встречает Харуну, которой осталось жить шесть месяцев. Акито привязывается к ней все больше и больше, но не говорит ей о своем состоянии. Страна: Япония Студия: Django Film, Nikkatsu Продолжительность: 01:59:54 Перевод: Любительский (многоголосый закадровый) | Синема УС Файл Кодек: Н.264 Качество: WEB-DLRip-AVC Видео: MPEG-4 AVC, 1347 Kbps, 1024x576 (16:9), 24.000 fps, 0.095 bit/pixel, High@L4.1 Звук 1: 48 kHz, AC3 Dolby Digital, 2/0 (L, R) ch, ~192 kbps | Синема УС Звук 2: 48 kHz, AC3 Dolby Digital, 3/2 (L, C, R, l, r) + LFE ch, ~448 kbps | Японский Звук 3: 48 kHz, AC3 Dolby Digital, 3/2 (L, C, R, l, r) + LFE ch, ~448 kbps | Английский Субтитры: английские (forced, full, SDH), немецкие, французские Семпл
[+] Скриншоты
[+] MediaInfo raw : 1024x576p 1:1 @ 24/1 fps (cfr) x264 : using SAR=1/1 x264 : using cpu capabilities: MMX2 SSE2Fast SSSE3 SSE4.2 AVX FMA3 BMI2 AVX2 x264 : profile High, level 4.1, 4:2:0, 8-bit x264 : frame I:1255 Avg QP:14.45 size: 56763 x264 : frame P:29054 Avg QP:16.59 size: 20071 x264 : frame B:142349 Avg QP:18.27 size: 3915 x264 : consecutive B-frames: 1.3% 0.7% 4.5% 4.7% 8.4% 45.6% 14.5% 2.3% 3.0% 2.6% 2.7% 1.1% 1.5% x264 : mb I I16..4: 11.2% 71.8% 17.0% x264 : mb P I16..4: 1.8% 7.4% 1.0% P16..4: 42.6% 26.6% 13.3% 0.0% 0.0% skip: 7.4% x264 : mb B I16..4: 0.1% 0.3% 0.0% B16..8: 34.4% 7.5% 1.6% direct: 3.0% skip:53.0% L0:40.5% L1:49.9% BI: 9.6% x264 : 8x8 transform intra:71.3% inter:59.8% x264 : direct mvs spatial:99.7% temporal:0.3% x264 : coded y, uvDC, uvAC intra: 71.8% 88.9% 77.3% inter: 8.3% 16.7% 11.2% x264 : i16 v, h, dc, p: 36% 12% 7% 46% x264 : i8 v, h, dc, ddl, ddr, vr, hd, vl, hu: 17% 10% 12% 7% 10% 12% 10% 11% 10% x264 : i4 v, h, dc, ddl, ddr, vr, hd, vl, hu: 20% 9% 6% 9% 13% 14% 10% 10% 9% x264 : i8c dc, h, v, p: 46% 18% 20% 16% x264 : Weighted P-Frames: Y:2.3% UV:1.5% x264 : ref P L0: 52.7% 7.6% 17.9% 6.1% 4.5% 3.0% 2.6% 1.2% 1.2% 0.9% 0.9% 0.7% 0.8% 0.0% 0.0% x264 : ref B L0: 77.6% 11.6% 4.4% 1.9% 1.3% 0.9% 0.7% 0.5% 0.3% 0.3% 0.2% 0.1% x264 : ref B L1: 93.2% 6.8% x264 : kb/s:1347.47 x264 : encoded 172658 frames, 13.14 fps, 1347.47 kb/s ================================================================== General Unique ID: 121638727191826913208035533757824427881 (0x5B82C4471462028B57D7084D0088E769) Complete name: D:\Za.god.do.smerti.ya.vstretil.tebya.2024.NF.WEB-DLRip.AVC.mkv Format: Matroska Format version: Version 4 File size: 2.04 GiB Duration: 1 h 59 min Overall bit rate: 2 438 kb/s Frame rate: 24.000 FPS Movie name: Drawing Closer (2024) WEB-DLRip-AVC _ vitolinforn Encoded date: 2024-07-05 22:14:20 UTC Writing application: mkvmerge v85.0 ('Shame For You') 64-bit Writing library: libebml v1.4.5 + libmatroska v1.7.1 Attachments: poster.jpg / log.log Video ID: 1 Format: AVC Format/Info: Advanced Video Codec Format profile: High@L4.1 Format settings: CABAC / 13 Ref Frames Format settings, CABAC: Yes Format settings, Reference frames: 13 frames Codec ID: V_MPEG4/ISO/AVC Duration: 1 h 59 min Bit rate: 1 347 kb/s Width: 1 024 pixels Height: 576 pixels Display aspect ratio: 16:9 Frame rate mode: Constant Frame rate: 24.000 FPS Color space: YUV Chroma subsampling: 4:2:0 Bit depth: 8 bits Scan type: Progressive Bits/(Pixel*Frame): 0.095 Stream size: 1.13 GiB (55%) Title: За год до смерти я встретил тебя / Yomei Ichinen to Senkoku Sareta Boku ga, Yomei Hantoshi no Kimi to Deatta Hanashi / Drawing Closer(2024) Writing library: x264 core 164 r3182 be4f020 Encoding settings: cabac=1 / ref=13 / deblock=1:-3:-3 / analyse=0x3:0x113 / me=umh / subme=10 / psy=1 / psy_rd=1.00:0.05 / mixed_ref=1 / me_range=32 / chroma_me=1 / trellis=2 / 8x8dct=1 / cqm=0 / deadzone=21, 11 / fast_pskip=0 / chroma_qp_offset=-3 / threads=12 / lookahead_threads=3 / sliced_threads=0 / nr=0 / decimate=0 / interlaced=0 / bluray_compat=0 / constrained_intra=0 / bframes=12 / b_pyramid=2 / b_adapt=2 / b_bias=0 / direct=3 / weightb=1 / open_gop=0 / weightp=2 / keyint=240 / keyint_min=24 / scenecut=40 / intra_refresh=0 / rc_lookahead=60 / rc=crf / mbtree=0 / crf=19.0 / qcomp=0.60 / qpmin=0 / qpmax=69 / qpstep=4 / vbv_maxrate=50000 / vbv_bufsize=62500 / crf_max=0.0 / nal_hrd=none / filler=0 / ip_ratio=1.40 / pb_ratio=1.30 / aq=1:1.00 Language: Japanese Default: Yes Forced: No Color range: Limited Color primaries: BT.709 Transfer characteristics: BT.709 Matrix coefficients: BT.709 Audio #1 ID: 2 Format: AC-3 Format/Info: Audio Coding 3 Commercial name: Dolby Digital Codec ID: A_AC3 Duration: 1 h 59 min Bit rate mode: Constant Bit rate: 192 kb/s Channel(s): 2 channels Channel layout: L R Sampling rate: 48.0 kHz Frame rate: 31.250 FPS (1536 SPF) Compression mode: Lossy Stream size: 165 MiB (8%) Title: MVO | Синема УС Language: Russian Service kind: Complete Main Default: Yes Forced: No Audio #2 ID: 3 Format: AC-3 Format/Info: Audio Coding 3 Commercial name: Dolby Digital Codec ID: A_AC3 Duration: 1 h 59 min Bit rate mode: Constant Bit rate: 448 kb/s Channel(s): 6 channels Channel layout: L R C LFE Ls Rs Sampling rate: 48.0 kHz Frame rate: 31.250 FPS (1536 SPF) Compression mode: Lossy Stream size: 384 MiB (18%) Title: Japanese Language: Japanese Service kind: Complete Main Default: No Forced: No Audio #3 ID: 4 Format: AC-3 Format/Info: Audio Coding 3 Commercial name: Dolby Digital Codec ID: A_AC3 Duration: 1 h 59 min Bit rate mode: Constant Bit rate: 448 kb/s Channel(s): 6 channels Channel layout: L R C LFE Ls Rs Sampling rate: 48.0 kHz Frame rate: 31.250 FPS (1536 SPF) Compression mode: Lossy Stream size: 384 MiB (18%) Title: English Language: English Service kind: Complete Main Default: No Forced: No Text #1 ID: 5 Format: UTF-8 Codec ID: S_TEXT/UTF8 Codec ID/Info: UTF-8 Plain Text Duration: 1 h 58 min Bit rate: 1 b/s Frame rate: 0.006 FPS Count of elements: 42 Stream size: 1.20 KiB (0%) Title: Forced Language: English Default: No Forced: No Text #2 ID: 6 Format: UTF-8 Codec ID: S_TEXT/UTF8 Codec ID/Info: UTF-8 Plain Text Duration: 1 h 58 min Bit rate: 41 b/s Frame rate: 0.201 FPS Count of elements: 1424 Stream size: 36.3 KiB (0%) Title: Full Language: English Default: No Forced: No Text #3 ID: 7 Format: UTF-8 Codec ID: S_TEXT/UTF8 Codec ID/Info: UTF-8 Plain Text Duration: 1 h 58 min Bit rate: 58 b/s Frame rate: 0.244 FPS Count of elements: 1738 Stream size: 50.6 KiB (0%) Title: SDH Language: English Default: No Forced: No Text #4 ID: 8 Format: UTF-8 Codec ID: S_TEXT/UTF8 Codec ID/Info: UTF-8 Plain Text Duration: 1 h 58 min Bit rate: 51 b/s Frame rate: 0.147 FPS Count of elements: 1043 Stream size: 44.7 KiB (0%) Title: Full Language: German Default: No Forced: No Text #5 ID: 9 Format: UTF-8 Codec ID: S_TEXT/UTF8 Codec ID/Info: UTF-8 Plain Text Duration: 1 h 58 min Bit rate: 40 b/s Frame rate: 0.200 FPS Count of elements: 1418 Stream size: 34.8 KiB (0%) Title: Full Language: French Default: No Forced: No
Rip by vitolinform

Всего файлов в раздаче: 1 
Za.god.do.smerti.ya.vstretil.tebya.2024.NF.WEB-DLRip.AVC.mkv2.04 GB

Похожие раздачи по запросу - год
2024-01-05 magnet Год медуз / L'année des méduses / Année des méduses, L' (1984) WEB-DLRip | P 746.71 MB ↑ 0 ↓ 0
2023-06-26 magnet Том Оксфорд, Н.В. Ярославцев - Tom Oxword 3000 или как запоминать 3000 слов в год (2023) PDF 12.06 MB ↑ 0 ↓ 0
2022-03-17 magnet Год культуры [S02] (2022) WEBRip 720p 8.78 GB ↑ 0 ↓ 0

Комментарии


Зарегистрируйтесь чтобы добавить комментарий
Торрент клиент
byTorrent - программа для загрузки торрент-файлов.

Скачать byTorrent.exe (1,5 МБ)

Скачать byTorrent.zip (0,6 МБ)

Поддержи torrent.by
российских рублей
(300 российских рублей это 4$)

Обратная связь rss

End game ©