↑↓torrent.by
Поиск
Логин:  Регистрация
Пароль:

Ворон / The Crow (1994) UHD WEB-DL 2160p | 4K | HDR | Dolby Vision Profile 8 | D, P, P2, A

download Скачать торрент-файл   magnet Магнитная ссылка Размер: 17.45 GB Добавлен: 2024-07-06 17:00
Пиры будут получены из сети DHT
Последний сидер был замечен 2024-07-20 19:53
Название: Ворон Оригинальное название: The Crow Год выхода: 1994 Производство: США / Crowvision Inc., Entertainment Media Investment Corporation, Image Comics Жанр: Триллер, фэнтези, боевик Перевод: Профессиональный дублированный, профессиональный многоголосый, профессиональный двухголосый, авторский многоголосый Продолжительность: 01:41:48 Режиссёр: Алекс Пройас В ролях: Брэндон Ли, Рошелль Дэвис, Эрни Хадсон, Майкл Уинкотт, Бай Лин, София Шинас, Анна Левайн-Томпсон, Дэвид Патрик Келли, Энджел Дэвид, Лоуренс Мэйсон Описание: Это была мрачная и страшная ночь. Ночь жуткого праздника Хэллоуин. Банда насильников и убийц, ворвавшись в дом молодой пары, жестоко расправилась с рок-музыкантом Эриком и его невестой Шелли. Спустя год Эрик Дрэйвен выбирается из могилы и отправляется на поиски убийц. Человек ли он? Или Ворон, жаждущий возмездия? Экранизация одноименных комиксов Джеймса О’Барра Формат: MKV Качество: WEB-DL 2160p Видео: MPEGH HEVC / 14,3 Mbps / 3840x2160 / 0.072 Бит/(Пиксели*Кадры) / 23.976 fps Аудио 01: AC-3, 2 ch, 256 kbps | Русский, DUB | Хлопушка | Аудио 02: AC-3, 2 ch, 192 kbps | Русский, MVO | ОРТ | Аудио 03: AC-3, 2 ch, 192 kbps | Русский, MVO | ТВ3 | Аудио 04: AC-3, 2 ch, 256 kbps | Русский, MVO | Форс Медиа / Paramount Channel | Аудио 05: AC-3, 2 ch, 192 kbps | Русский, MVO | AMC | Аудио 06: AC-3, 2 ch, 192 kbps | Русский, DVO | НТВ / ТВЦ / ТНТ | Аудио 07: AC-3, 6 ch, 448 kbps | Русский, DVO | R5 Twister / Киномания | Аудио 08: AC-3, 2 ch, 192 kbps | Русский, DVO | SDI Media | Аудио 09: E-AC-3, 6 ch, 1024 kbps | Русский, AVO | А. Гаврилов | Поздний Аудио 10: E-AC-3, 6 ch, 1024 kbps | Русский, AVO | В. Горчаков | Аудио 11: E-AC-3, 6 ch, 1024 kbps | Русский, AVO | Ю. Сербин | Аудио 12: E-AC-3, 6 ch, 1024 kbps | Русский, AVO | Д. Пучков | Аудио 13: AC-3, 2 ch, 192 kbps | Русский, AVO | А. Гаврилов | Ранний Аудио 14: AC-3, 2 ch, 192 kbps | Русский, AVO | В. Дохалов | Аудио 15: AC-3, 2 ch, 192 kbps | Русский, AVO | Ю. Живов | Аудио 16: AC-3, 6 ch, 384 kbps | Русский, AVO | М. Чадов | Аудио 17: E-AC-3, 6 ch, 1024 kbps | Русский, AVO | М. Яроцкий | Аудио 18: AC-3, 2 ch, 192 kbps | Украинский, DUB | NLO.TV | Аудио 19: AC-3, 6 ch, 448 kbps | Украинский, DVO | Новый Канал | Аудио 20: AC-3, 6 ch, 448 kbps | Белорусский, DVO | Arciom и Atruta | Аудио 21: E-AC-3, 6 ch, 1024 kbps | Английский | Субтитры: Русские (Forced, Full), украинские (Forced, Full), английские (Full, SDH)
[+] MediainfoGeneral Unique ID : 178492099861411492087682812621080231167 (0x864853F78B268B4F431BC614511FFCFF) Complete name : N:FOR RELEASEThe CrowFIXEDThe.Crow.1994.2160p.WEB-DL.DDP5.1.HDR.DV.HP8-DVT.mkv Format : Matroska Format version : Version 4 File size : 17.4 GiB Duration : 1 h 41 min Overall bit rate : 24.5 Mb/s Frame rate : 23.976 FPS Movie name : The Crow (1994) - Release by DVT Encoded date : 2024-03-03 15:57:32 UTC Writing application : mkvmerge v82.0 ('I'm The President') 64-bit Writing library : libebml v1.4.5 + libmatroska v1.7.1 Cover : Yes Attachments : cover.jpg Video ID : 1 Format : HEVC Format/Info : High Efficiency Video Coding Format profile : Main 10@L5@Main HDR format : Dolby Vision, Version 1.0, dvhe.08.06, BL+RPU, HDR10 compatible / SMPTE ST 2086, HDR10 compatible Codec ID : V_MPEGH/ISO/HEVC Duration : 1 h 41 min Bit rate : 14.3 Mb/s Width : 3 840 pixels Height : 2 160 pixels Display aspect ratio : 16:9 Frame rate mode : Constant Frame rate : 23.976 (24000/1001) FPS Color space : YUV Chroma subsampling : 4:2:0 (Type 2) Bit depth : 10 bits Bits/(Pixel*Frame) : 0.072 Stream size : 10.1 GiB (58%) Title : The Crow (1994) Language : English Default : Yes Forced : No Color range : Full Color primaries : BT.2020 Transfer characteristics : PQ Matrix coefficients : BT.2020 non-constant Mastering display color primaries : Display P3 Mastering display luminance : min: 0.0050 cd/m2, max: 4000 cd/m2 Maximum Content Light Level : 256 cd/m2 Maximum Frame-Average Light Level : 216 cd/m2 Audio #1 ID : 2 Format : AC-3 Format/Info : Audio Coding 3 Commercial name : Dolby Digital Codec ID : A_AC3 Duration : 1 h 41 min Bit rate mode : Constant Bit rate : 256 kb/s Channel(s) : 2 channels Channel layout : L R Sampling rate : 48.0 kHz Frame rate : 31.250 FPS (1536 SPF) Compression mode : Lossy Stream size : 186 MiB (1%) Title : Дубляж, Хлопушка Language : Russian Service kind : Complete Main Default : Yes Forced : No Audio #2 ID : 3 Format : AC-3 Format/Info : Audio Coding 3 Commercial name : Dolby Digital Codec ID : A_AC3 Duration : 1 h 41 min Bit rate mode : Constant Bit rate : 192 kb/s Channel(s) : 2 channels Channel layout : L R Sampling rate : 48.0 kHz Frame rate : 31.250 FPS (1536 SPF) Compression mode : Lossy Stream size : 140 MiB (1%) Title : MVO, ОРТ Language : Russian Service kind : Complete Main Default : No Forced : No Audio #3 ID : 4 Format : AC-3 Format/Info : Audio Coding 3 Commercial name : Dolby Digital Codec ID : A_AC3 Duration : 1 h 41 min Bit rate mode : Constant Bit rate : 192 kb/s Channel(s) : 2 channels Channel layout : L R Sampling rate : 48.0 kHz Frame rate : 31.250 FPS (1536 SPF) Compression mode : Lossy Stream size : 140 MiB (1%) Title : MVO, ТВ3 Language : Russian Service kind : Complete Main Default : No Forced : No Audio #4 ID : 5 Format : AC-3 Format/Info : Audio Coding 3 Commercial name : Dolby Digital Codec ID : A_AC3 Duration : 1 h 41 min Bit rate mode : Constant Bit rate : 256 kb/s Channel(s) : 2 channels Channel layout : L R Sampling rate : 48.0 kHz Frame rate : 31.250 FPS (1536 SPF) Compression mode : Lossy Stream size : 186 MiB (1%) Title : MVO, Форс Медиа / Paramount Channel HD Language : Russian Service kind : Complete Main Default : No Forced : No Audio #5 ID : 6 Format : AC-3 Format/Info : Audio Coding 3 Commercial name : Dolby Digital Codec ID : A_AC3 Duration : 1 h 41 min Bit rate mode : Constant Bit rate : 192 kb/s Channel(s) : 2 channels Channel layout : L R Sampling rate : 48.0 kHz Frame rate : 31.250 FPS (1536 SPF) Compression mode : Lossy Stream size : 140 MiB (1%) Title : MVO, AMC Language : Russian Service kind : Complete Main Default : No Forced : No Audio #6 ID : 7 Format : AC-3 Format/Info : Audio Coding 3 Commercial name : Dolby Digital Codec ID : A_AC3 Duration : 1 h 41 min Bit rate mode : Constant Bit rate : 192 kb/s Channel(s) : 2 channels Channel layout : L R Sampling rate : 48.0 kHz Frame rate : 31.250 FPS (1536 SPF) Compression mode : Lossy Stream size : 140 MiB (1%) Title : DVO, НТВ / ТВЦ / ТНТ Language : Russian Service kind : Complete Main Default : No Forced : No Audio #7 ID : 8 Format : AC-3 Format/Info : Audio Coding 3 Commercial name : Dolby Digital Codec ID : A_AC3 Duration : 1 h 41 min Bit rate mode : Constant Bit rate : 448 kb/s Channel(s) : 6 channels Channel layout : L R C LFE Ls Rs Sampling rate : 48.0 kHz Frame rate : 31.250 FPS (1536 SPF) Compression mode : Lossy Stream size : 326 MiB (2%) Title : DVO, R5 Twister / Киномания Language : Russian Service kind : Complete Main Default : No Forced : No Audio #8 ID : 9 Format : AC-3 Format/Info : Audio Coding 3 Commercial name : Dolby Digital Codec ID : A_AC3 Duration : 1 h 41 min Bit rate mode : Constant Bit rate : 192 kb/s Channel(s) : 2 channels Channel layout : L R Sampling rate : 48.0 kHz Frame rate : 31.250 FPS (1536 SPF) Compression mode : Lossy Stream size : 140 MiB (1%) Title : DVO, SDI Media Latvia Language : Russian Service kind : Complete Main Default : No Forced : No Audio #9 ID : 10 Format : E-AC-3 Format/Info : Enhanced AC-3 Commercial name : Dolby Digital Plus Codec ID : A_EAC3 Duration : 1 h 41 min Bit rate mode : Constant Bit rate : 1 024 kb/s Channel(s) : 6 channels Channel layout : L R C LFE Ls Rs Sampling rate : 48.0 kHz Frame rate : 31.250 FPS (1536 SPF) Compression mode : Lossy Stream size : 746 MiB (4%) Title : AVO, А. Гаврилов (поздний) Language : Russian Service kind : Complete Main Default : No Forced : No Audio #10 ID : 11 Format : E-AC-3 Format/Info : Enhanced AC-3 Commercial name : Dolby Digital Plus Codec ID : A_EAC3 Duration : 1 h 41 min Bit rate mode : Constant Bit rate : 1 024 kb/s Channel(s) : 6 channels Channel layout : L R C LFE Ls Rs Sampling rate : 48.0 kHz Frame rate : 31.250 FPS (1536 SPF) Compression mode : Lossy Stream size : 746 MiB (4%) Title : AVO, В. Горчаков Language : Russian Service kind : Complete Main Default : No Forced : No Audio #11 ID : 12 Format : E-AC-3 Format/Info : Enhanced AC-3 Commercial name : Dolby Digital Plus Codec ID : A_EAC3 Duration : 1 h 41 min Bit rate mode : Constant Bit rate : 1 024 kb/s Channel(s) : 6 channels Channel layout : L R C LFE Ls Rs Sampling rate : 48.0 kHz Frame rate : 31.250 FPS (1536 SPF) Compression mode : Lossy Stream size : 746 MiB (4%) Title : AVO, Ю. Сербин Language : Russian Service kind : Complete Main Default : No Forced : No Audio #12 ID : 13 Format : E-AC-3 Format/Info : Enhanced AC-3 Commercial name : Dolby Digital Plus Codec ID : A_EAC3 Duration : 1 h 41 min Bit rate mode : Constant Bit rate : 1 024 kb/s Channel(s) : 6 channels Channel layout : L R C LFE Ls Rs Sampling rate : 48.0 kHz Frame rate : 31.250 FPS (1536 SPF) Compression mode : Lossy Stream size : 746 MiB (4%) Title : AVO, Д. Пучков «Goblin» Language : Russian Service kind : Complete Main Default : No Forced : No Audio #13 ID : 14 Format : AC-3 Format/Info : Audio Coding 3 Commercial name : Dolby Digital Codec ID : A_AC3 Duration : 1 h 41 min Bit rate mode : Constant Bit rate : 192 kb/s Channel(s) : 2 channels Channel layout : L R Sampling rate : 48.0 kHz Frame rate : 31.250 FPS (1536 SPF) Compression mode : Lossy Stream size : 140 MiB (1%) Title : AVO, А. Гаврилов (ранний) Language : Russian Service kind : Complete Main Default : No Forced : No Audio #14 ID : 15 Format : AC-3 Format/Info : Audio Coding 3 Commercial name : Dolby Digital Codec ID : A_AC3 Duration : 1 h 41 min Bit rate mode : Constant Bit rate : 192 kb/s Channel(s) : 2 channels Channel layout : L R Sampling rate : 48.0 kHz Frame rate : 31.250 FPS (1536 SPF) Compression mode : Lossy Stream size : 140 MiB (1%) Title : AVO, В. Дохалов Language : Russian Service kind : Complete Main Default : No Forced : No Audio #15 ID : 16 Format : AC-3 Format/Info : Audio Coding 3 Commercial name : Dolby Digital Codec ID : A_AC3 Duration : 1 h 41 min Bit rate mode : Constant Bit rate : 192 kb/s Channel(s) : 2 channels Channel layout : L R Sampling rate : 48.0 kHz Frame rate : 31.250 FPS (1536 SPF) Compression mode : Lossy Stream size : 140 MiB (1%) Title : AVO, Ю. Живов Language : Russian Service kind : Complete Main Default : No Forced : No Audio #16 ID : 17 Format : AC-3 Format/Info : Audio Coding 3 Commercial name : Dolby Digital Codec ID : A_AC3 Duration : 1 h 41 min Bit rate mode : Constant Bit rate : 384 kb/s Channel(s) : 6 channels Channel layout : L R C LFE Ls Rs Sampling rate : 48.0 kHz Frame rate : 31.250 FPS (1536 SPF) Compression mode : Lossy Stream size : 280 MiB (2%) Title : VO, М. Чадов Language : Russian Service kind : Complete Main Default : No Forced : No Audio #17 ID : 18 Format : E-AC-3 Format/Info : Enhanced AC-3 Commercial name : Dolby Digital Plus Codec ID : A_EAC3 Duration : 1 h 41 min Bit rate mode : Constant Bit rate : 1 024 kb/s Channel(s) : 6 channels Channel layout : L R C LFE Ls Rs Sampling rate : 48.0 kHz Frame rate : 31.250 FPS (1536 SPF) Compression mode : Lossy Stream size : 746 MiB (4%) Title : VO, М. Яроцкий Language : Russian Service kind : Complete Main Default : No Forced : No Audio #18 ID : 19 Format : AC-3 Format/Info : Audio Coding 3 Commercial name : Dolby Digital Codec ID : A_AC3 Duration : 1 h 41 min Bit rate mode : Constant Bit rate : 192 kb/s Channel(s) : 2 channels Channel layout : L R Sampling rate : 48.0 kHz Frame rate : 31.250 FPS (1536 SPF) Compression mode : Lossy Stream size : 140 MiB (1%) Title : Дубляж, NLO.TV Language : Ukrainian Service kind : Complete Main Default : No Forced : No Audio #19 ID : 20 Format : AC-3 Format/Info : Audio Coding 3 Commercial name : Dolby Digital Codec ID : A_AC3 Duration : 1 h 41 min Bit rate mode : Constant Bit rate : 448 kb/s Channel(s) : 6 channels Channel layout : L R C LFE Ls Rs Sampling rate : 48.0 kHz Frame rate : 31.250 FPS (1536 SPF) Compression mode : Lossy Stream size : 326 MiB (2%) Title : DVO, Новий канал Language : Ukrainian Service kind : Complete Main Default : No Forced : No Audio #20 ID : 21 Format : AC-3 Format/Info : Audio Coding 3 Commercial name : Dolby Digital Codec ID : A_AC3 Duration : 1 h 39 min Bit rate mode : Constant Bit rate : 384 kb/s Channel(s) : 6 channels Channel layout : L R C LFE Ls Rs Sampling rate : 48.0 kHz Frame rate : 31.250 FPS (1536 SPF) Compression mode : Lossy Stream size : 275 MiB (2%) Title : DVO, Arciom и Atruta Language : Belarusian Service kind : Complete Main Default : No Forced : No Audio #21 ID : 22 Format : E-AC-3 Format/Info : Enhanced AC-3 Commercial name : Dolby Digital Plus Codec ID : A_EAC3 Duration : 1 h 41 min Bit rate mode : Constant Bit rate : 1 024 kb/s Channel(s) : 6 channels Channel layout : L R C LFE Ls Rs Sampling rate : 48.0 kHz Frame rate : 31.250 FPS (1536 SPF) Compression mode : Lossy Stream size : 746 MiB (4%) Title : Original Language : English Service kind : Complete Main Default : No Forced : No Audio #22 ID : 23 Format : AC-3 Format/Info : Audio Coding 3 Commercial name : Dolby Digital Format settings : Dolby Surround Codec ID : A_AC3 Duration : 1 h 41 min Bit rate mode : Constant Bit rate : 224 kb/s Channel(s) : 2 channels Channel layout : L R Sampling rate : 48.0 kHz Frame rate : 31.250 FPS (1536 SPF) Compression mode : Lossy Stream size : 163 MiB (1%) Title : Commentary with director Alex Proyas Language : English Service kind : Complete Main Default : No Forced : No Text #1 ID : 24 Format : UTF-8 Codec ID : S_TEXT/UTF8 Codec ID/Info : UTF-8 Plain Text Duration : 1 h 33 min Bit rate : 0 b/s Frame rate : 0.001 FPS Count of elements : 6 Stream size : 173 Bytes (0%) Title : Forced Language : Russian Default : No Forced : No Text #2 ID : 25 Format : UTF-8 Codec ID : S_TEXT/UTF8 Codec ID/Info : UTF-8 Plain Text Duration : 1 h 33 min Bit rate : 66 b/s Frame rate : 0.149 FPS Count of elements : 841 Stream size : 45.9 KiB (0%) Title : Full, R5 Language : Russian Default : No Forced : No Text #3 ID : 26 Format : UTF-8 Codec ID : S_TEXT/UTF8 Codec ID/Info : UTF-8 Plain Text Duration : 1 h 34 min Bit rate : 70 b/s Frame rate : 0.157 FPS Count of elements : 886 Stream size : 48.6 KiB (0%) Title : Full, Д. Пучков Language : Russian Default : No Forced : No Text #4 ID : 27 Format : UTF-8 Codec ID : S_TEXT/UTF8 Codec ID/Info : UTF-8 Plain Text Duration : 1 h 33 min Bit rate : 0 b/s Frame rate : 0.001 FPS Count of elements : 6 Stream size : 173 Bytes (0%) Title : Forced Language : Ukrainian Default : No Forced : No Text #5 ID : 28 Format : UTF-8 Codec ID : S_TEXT/UTF8 Codec ID/Info : UTF-8 Plain Text Duration : 1 h 33 min Bit rate : 62 b/s Frame rate : 0.157 FPS Count of elements : 888 Stream size : 43.1 KiB (0%) Title : Full, Voron16 Language : Ukrainian Default : No Forced : No Text #6 ID : 29 Format : UTF-8 Codec ID : S_TEXT/UTF8 Codec ID/Info : UTF-8 Plain Text Duration : 1 h 40 min Bit rate : 42 b/s Frame rate : 0.183 FPS Count of elements : 1102 Stream size : 31.5 KiB (0%) Title : Full Language : English Default : No Forced : No Text #7 ID : 30 Format : UTF-8 Codec ID : S_TEXT/UTF8 Codec ID/Info : UTF-8 Plain Text Duration : 1 h 40 min Bit rate : 49 b/s Frame rate : 0.185 FPS Count of elements : 1116 Stream size : 36.8 KiB (0%) Title : SDH Language : English Default : No Forced : No Menu 00:00:00.000 : en:Murder and fire 00:04:33.690 : en:Living dead 00:16:57.558 : en:Victims, aren't we all 00:22:05.365 : en:Death is coming tonight 00:35:26.999 : en:Mother is the name for God 00:44:37.549 : en:Curious cop 00:48:41.043 : en:Awfully touching 00:52:03.870 : en:Blast from the past 00:59:43.997 : en:Funny drugs 01:01:11.584 : en:Guilty conscience 01:02:34.000 : en:Missing and caring 01:06:02.249 : en:No such thing as ghosts 01:07:16.949 : en:The dead can't come back 01:09:29.915 : en:The avenger 01:17:58.465 : en:Kill the crow and destroy the man 01:21:14.619 : en:Every man's devil 01:32:55.778 : en:Reunited! 01:34:21.113 : en:End credits
[+] Скриншоты

Всего файлов в раздаче: 1 
The.Crow.1994.2160p.WEB-DL.DDP5.1.HDR.DV.HP8-DVT.mkv17.45 GB

Похожие раздачи по запросу - Ворон
2024-05-20 magnet Дмитрий Ворон - Русское Чернокнижие [3 книги] (2014-2015) PDF 181.46 MB ↑ 0 ↓ 0

Комментарии


Зарегистрируйтесь чтобы добавить комментарий
Торрент клиент
byTorrent - программа для загрузки торрент-файлов.

Скачать byTorrent.exe (1,5 МБ)

Скачать byTorrent.zip (0,6 МБ)

Поддержи torrent.by
российских рублей
(300 российских рублей это 4$)

Обратная связь rss

End game ©