↑↓torrent.by
Поиск
Логин:  Регистрация
Пароль:

Корабль в Пусан / Project Wolf Hunting / Neukdaesanyang (2022) BDRip 720p от селезень | D, A

download Скачать торрент-файл   magnet Магнитная ссылка Размер: 5.98 GB Добавлен: 2024-07-06 17:00
Пиры будут получены из сети DHT
Последний сидер был замечен 2024-07-09 18:41
Информация о фильме Название: Корабль в Пусан Оригинальное название: Neukdaesanyang / Project Wolf Hunting Год выхода: 2022 Жанр: боевик, ужасы, криминал Режиссер: Ким Хон-сон В ролях: Со Ин-гук, Чан Дон-юн, Сон Дон-иль, Пак Хо-сан, Чон Со-мин, Ко Чхан-сок, Чан Ён-нам, Сон Джон-хак, Ли Сон-ук, Хон Джи-юн О фильме: Под прикрытием перевозки особо опасных преступников с Филиппин в порт Пусана должны доставить секретный груз. Безопасность его транспортировки обеспечивает элитный спецназ. Когда заключенные захватывают судно, пытаясь добраться до ценного груза, оказывается, что на корабле есть сила пострашнее их. Чтобы попасть в Пусан, охранникам и особо опасным преступникам придется пройти через настоящий ад. Страна: Корея Южная Студия: Cheum Film, Contents G, The Contents On Продолжительность: 02:02:18 Перевод 1: Дублированный | Paragraph Media Перевод 2: Авторский | Ю. Сербин 18 + *** Отсутствует дубляж около 2 мин., отрезок заменен авторским переводом Ю. Сербина 18 + Субтитры: Русские (Full), английские Файл Формат: Matroska Качество: BDRip 720p Видео: 1280x536 at 23.976 fps, x264@L4.1, ~5714 Кbps Аудио 1: AC3, 6 ch, ~448 kbps - | Русский | | Дублированный | Paragraph Media Аудио 2: AC3, 2 ch, ~192 kbps - | Русский | | Авторский | Ю. Сербин Аудио 3: AC3, 6 ch, ~640 kbps - | Корейский | Original Формат субтитров: softsub (SRT)
[+] M/IGeneral Unique ID : 239435566696610627798540134784217302172 (0xB4219CDE2EABB131633B3B0565B2C49C) Complete name : E:VideoDProject.Wolf.Hunting.2022.BDRip.720p.seleZen.mkv Format : Matroska Format version : Version 4 File size : 5.98 GiB Duration : 2 h 2 min Overall bit rate : 6 997 kb/s Movie name : Project Wolf Hunting 2022 from seleZen Encoded date : UTC 2023-02-06 10:49:14 Writing application : mkvmerge v59.0.0 ('Shining Star') 64-bit Writing library : libebml v1.4.2 + libmatroska v1.6.4 Video ID : 1 Format : AVC Format/Info : Advanced Video Codec Format profile : High@L4.1 Format settings : CABAC / 12 Ref Frames Format settings, CABAC : Yes Format settings, Reference : 12 frames Codec ID : V_MPEG4/ISO/AVC Duration : 2 h 2 min Bit rate : 5 714 kb/s Width : 1 280 pixels Height : 536 pixels Display aspect ratio : 2.40:1 Frame rate mode : Constant Frame rate : 23.976 (24000/1001) FPS Color space : YUV Chroma subsampling : 4:2:0 Bit depth : 8 bits Scan type : Progressive Bits/(Pixel*Frame) : 0.347 Stream size : 4.88 GiB (82%) Title : MTeam Writing library : x264 core 157 r2938 2b00a84 TnP@MTeam Mod Encoding settings : cabac=1 / ref=12 / deblock=1:-3:-3 / analyse=0x3:0x133 / me=umh / subme=10 / psy=1 / psy_rd=1.05:0.00 / mixed_ref=1 / me_range=32 / chroma_me=1 / trellis=2 / 8x8dct=1 / cqm=0 / deadzone=21,11 / fast_pskip=0 / chroma_qp_offset=-2 / threads=12 / lookahead_threads=2 / sliced_threads=0 / nr=0 / decimate=0 / interlaced=0 / bluray_compat=0 / constrained_intra=0 / bframes=8 / b_pyramid=2 / b_adapt=2 / b_bias=0 / direct=3 / weightb=1 / open_gop=0 / weightp=2 / keyint=250 / keyint_min=24 / scenecut=40 / intra_refresh=0 / rc_lookahead=250 / rc=crf / mbtree=0 / crf=16.8 / qcomp=0.60 / qpmin=0 / qpmax=69 / qpstep=4 / vbv_maxrate=62500 / vbv_bufsize=78125 / crf_max=0.0 / nal_hrd=none / filler=0 / ip_ratio=1.30 / pb_ratio=1.20 / aq=3:0.80 Language : English Default : Yes Forced : No Color range : Limited Color primaries : BT.709 Matrix coefficients : BT.709 Audio #1 ID : 2 Format : AC-3 Format/Info : Audio Coding 3 Commercial name : Dolby Digital Codec ID : A_AC3 Duration : 2 h 2 min Bit rate mode : Constant Bit rate : 448 kb/s Channel(s) : 6 channels Channel layout : L R C LFE Ls Rs Sampling rate : 48.0 kHz Frame rate : 31.250 FPS (1536 SPF) Compression mode : Lossy Stream size : 392 MiB (6%) Title : Dub_ Language : Russian Service kind : Complete Main Default : Yes Forced : Yes Audio #2 ID : 3 Format : AC-3 Format/Info : Audio Coding 3 Commercial name : Dolby Digital Codec ID : A_AC3 Duration : 2 h 2 min Bit rate mode : Constant Bit rate : 192 kb/s Channel(s) : 2 channels Channel layout : L R Sampling rate : 48.0 kHz Frame rate : 31.250 FPS (1536 SPF) Compression mode : Lossy Stream size : 168 MiB (3%) Title : AVO_ Language : Russian Service kind : Complete Main Default : No Forced : No Audio #3 ID : 4 Format : AC-3 Format/Info : Audio Coding 3 Commercial name : Dolby Digital Codec ID : A_AC3 Duration : 2 h 2 min Bit rate mode : Constant Bit rate : 640 kb/s Channel(s) : 6 channels Channel layout : L R C LFE Ls Rs Sampling rate : 48.0 kHz Frame rate : 31.250 FPS (1536 SPF) Compression mode : Lossy Stream size : 560 MiB (9%) Title : Original Language : English Service kind : Complete Main Default : No Forced : No Text #1 ID : 5 Format : UTF-8 Codec ID : S_TEXT/UTF8 Codec ID/Info : UTF-8 Plain Text Duration : 1 h 52 min Bit rate : 54 b/s Frame rate : 0.134 FPS Count of elements : 903 Stream size : 45.1 KiB (0%) Title : Full Language : Russian Default : No Forced : No Text #2 ID : 6 Format : UTF-8 Codec ID : S_TEXT/UTF8 Codec ID/Info : UTF-8 Plain Text Duration : 1 h 52 min Bit rate : 29 b/s Frame rate : 0.134 FPS Count of elements : 903 Stream size : 24.7 KiB (0%) Title : Full Language : English Default : No Forced : No Menu 00:00:00.000 : Chapter 01 00:09:08.714 : Chapter 02 00:19:07.229 : Chapter 03 00:27:54.756 : Chapter 04 00:37:55.815 : Chapter 05 00:47:39.147 : Chapter 06 01:04:11.138 : Chapter 07 01:14:08.610 : Chapter 08 01:25:30.500 : Chapter 09 01:36:18.105 : Chapter 10 01:46:04.066 : Chapter 11
Релиз: Присоединяйся к: Кликай на баннеры.

Всего файлов в раздаче: 1 
Project.Wolf.Hunting.2022.BDRip.720p.seleZen.mkv5.98 GB

Похожие раздачи по запросу - Корабль
2024-07-06 magnet Корабль в Пусан / Neukdaesanyang / Project Wolf Hunting (2022) BDRip 1080p | D, P, A 15.98 GB ↑ 0 ↓ 0
2024-06-07 magnet Летучий корабль (2024) WEB-DLRip от Generalfilm | КПК 381.39 MB ↑ 1 ↓ 0
2024-06-06 magnet Летучий корабль (2024) WEB-DLRip-AVC от DoMiNo & селезень 1.65 GB ↑ 0 ↓ 0
2024-06-06 magnet Летучий корабль (2024) WEB-DLRip 1.46 GB ↑ 1 ↓ 0
2024-06-06 magnet Летучий корабль (2024) WEB-DL 720p от ExKinoRay 2.07 GB ↑ 0 ↓ 0
2024-06-06 magnet Летучий корабль (2024) WEB-DLRip-AVC от ExKinoRay 1.45 GB ↑ 0 ↓ 0
2024-06-06 magnet Летучий корабль (2024) WEB-DL 1080p от ExKinoRay 4.11 GB ↑ 0 ↓ 1

Комментарии


Зарегистрируйтесь чтобы добавить комментарий
Торрент клиент
byTorrent - программа для загрузки торрент-файлов.

Скачать byTorrent.exe (1,5 МБ)

Скачать byTorrent.zip (0,6 МБ)

Поддержи torrent.by
российских рублей
(300 российских рублей это 4$)

Обратная связь rss

End game ©