↑↓torrent.by
Поиск
Логин:  Регистрация
Пароль:

Трембита (1968) HDTV 1080i

download Скачать торрент-файл   magnet Магнитная ссылка Размер: 6.36 GB Добавлен: 2024-07-06 17:00
Пиры будут получены из сети DHT
Последний сидер был замечен 2024-07-12 17:05
Жанр: Мюзикл, Мелодрама, Комедия Режиссер: Олег Николаевский Актеры: Евгений Весник, Ольга Аросева, Алексей Чернов, Николай Трофимов, Людмила Купина, Юлия Вуккерт, Иван Переверзев, Савелий Крамаров, Сергей Блинников, Игорь Класс Описание: Действие разворачивается в первые послевоенные годы в приграничной деревушке. Сюда возвращается Богдан Сусик - бывший дворецкий заправлявшего в этих краях графа Шенброка. После бегства в Германию в 1944 году он решил вернуться на родину в поисках несметных сокровищ, которые графу не удалось увезти с собой. Шенброк когда-то обещал деду Атанасу, что даст его внучке Василине богатое приданое, однако война спутала все карты. Сусик сообщает старику, что граф зарыл большой сундук с богатствами где-то неподалеку… Производство: СССР / Свердловская киностудия Продолжительность: 01:27:00 Качество видео: HDTV Видео: AVC/H.264, 1920x1080, ~9355 Kbps Аудио #1: MP2, 48 kHz, 2 ch, 224 kbps Аудио #2: АС-3, 48 kHz, 6 ch, 384 kbps
[+] M/IОбщее Идентификатор : 16 (0x10) Полное имя : Trembita_HD.ts Формат : MPEG-TS Размер файла : 6,38 Гбайт Продолжительность : 1 ч. 27 м. Режим общего битрейта : Переменный Общий поток : 10,5 Мбит/сек Видео Идентификатор : 1902 (0x76E) Идентификатор меню : 92 (0x5C) Формат : AVC Формат/Информация : Advanced Video Codec Профиль формата : High@L4.0 Параметр CABAC формата : Да Параметр ReFrames формата : 3 кадра Параметр GOP формата : M=4, N=32 Идентификатор кодека : 27 Продолжительность : 1 ч. 27 м. Битрейт : 9355 Кбит/сек Ширина : 1920 пикселей Высота : 1080 пикселей Соотношение сторон : 16:9 Частота кадров : 25,000 кадров/сек Стандарт вещания : PAL Цветовое пространство : YUV Субдискретизация насыщенности : 4:2:0 Битовая глубина : 8 бит Тип развёртки : Чересстрочная Порядок развёртки : Верхнее поле первое Бит/(Пиксели*Кадры) : 0.180 Размер потока : 5,69 Гбайт (89%) Основные цвета : BT.709 Характеристики трансфера : BT.709 Коэффициенты матрицы : BT.709 Аудио #1 Идентификатор : 2902 (0xB56) Идентификатор меню : 92 (0x5C) Формат : MPEG Audio Версия формата : Version 1 Профиль формата : Layer 2 Идентификатор кодека : 4 Продолжительность : 1 ч. 27 м. Вид битрейта : Постоянный Битрейт : 224 Кбит/сек Каналы : 2 канала Частота : 48,0 КГц Метод сжатия : С потерями Задержка видео : 101 мс. Размер потока : 140 Мбайт (2%) Язык : std Язык, дополнительно : Clean effects Аудио #2 Идентификатор : 3902 (0xF3E) Идентификатор меню : 92 (0x5C) Формат : AC-3 Формат/Информация : Audio Coding 3 Расширение режима : CM (complete main) Параметр Endianness формата : Big Идентификатор кодека : 6 Продолжительность : 1 ч. 27 м. Вид битрейта : Постоянный Битрейт : 384 Кбит/сек Каналы : 6 каналов Расположение каналов : Front: L C R, Side: L R, LFE Частота : 48,0 КГц Битовая глубина : 16 бит Метод сжатия : С потерями Задержка видео : 51 мс. Размер потока : 239 Мбайт (4%) Язык : std Язык, дополнительно : Clean effects Текст #1 Идентификатор : 33 (0x21)-100 Идентификатор меню : 92 (0x5C) Формат : Teletext Текст #2 Идентификатор : 33 (0x21)-880 Идентификатор меню : 92 (0x5C) Формат : Teletext Subtitle Язык : Russian Текст #3 Идентификатор : 33 (0x21)-888 Идентификатор меню : 92 (0x5C) Формат : Teletext Меню Идентификатор : 902 (0x386) Идентификатор меню : 92 (0x5C) Продолжительность : 1 ч. 27 м. Список : 1902 (0x76E) (AVC) / 2902 (0xB56) (MPEG Audio, std) / 3902 (0xF3E) (AC-3, std) / 33 (0x21) () Язык : / std / std
[+] Скриншоты

Всего файлов в раздаче: 1 
Trembita_HD.ts6.36 GB

Комментарии


Зарегистрируйтесь чтобы добавить комментарий
Торрент клиент
byTorrent - программа для загрузки торрент-файлов.

Скачать byTorrent.exe (1,5 МБ)

Скачать byTorrent.zip (0,6 МБ)

Поддержи torrent.by
российских рублей
(300 российских рублей это 4$)

Обратная связь rss

End game ©