↑↓torrent.by
Поиск
Логин:  Регистрация
Пароль:

Королевский роман / A Royal Affair / En kongelig affære (2012) BDRip 1080p | P

download Скачать торрент-файл   magnet Магнитная ссылка Размер: 5.76 GB Добавлен: 2024-07-06 17:00
Пиры будут получены из сети DHT
Последний сидер был замечен 2024-07-07 13:32
Информация о фильме Название: Королевский роман Оригинальное название: En kongelig affære Год выхода: 2012 Жанр: драма, мелодрама, история Режиссер: Николай Арсел В ролях: Алисия Викандер, Мадс Миккельсен, Миккель Фольсгаард, Трине Дюрхольм, Давид Денсик, Томас В. Габриэльссон, Сайрон Бьорк Мелвиль, Бент Мейдинг, Харриет Уолтер, Лаура Бро О фильме: Действие картины происходит в начале 1770-х годов в Дании. Датский король Кристиан VII, страдающий серьезным психическим заболеванием, предпочитает проводить время в притонах Копенгагена, вызывая тем самым ненависть юной королевы Каролины Матильды. Вскоре в свите короля появляется молодой германский доктор Иоганн Фридрих Струэнзе, сумевший благотворно повлиять на Кристиана VII и, завоевав его доверие, получить ряд государственных постов. Струэнзе сближается и с Каролиной Матильдой. Но королева-мать Юлиана Мария не может смириться с таким положением дел… Выпущено: Zentropa Entertainments Продолжительность: 02:12:04 Перевод: Профессиональный (многоголосый, закадровый) (лицензия) Файл Кодек: x264 Качество: BDRip (источник: Blu-ray Disc) Видео: 1920x816 (2,35:1), 25 fps, 5350 kbps Аудио #1: AC-3, 6 ch, 448 kbps (Rus) Аудио #2: AC-3, 6 ch, 448 kbps (Dan) Субтитры: Английские Скачать: сэмпл Скриншоты
[+] MIОбщее Уникальный идентификатор : 239655260020735898838463750873630475767 (0xB44BEC95C66371D89D94A695A49D85F7) Полное имя : A.Royal.Affair.2012.BDRip.1080p.Rus.Dan.mkv Формат : Matroska Версия формата : Version 2 Размер файла : 5,76 Гбайт Продолжительность : 2 ч. 12 м. Общий поток : 6245 Кбит/сек Название фильма : Королевский роман / En kongelig affære (2012) Дата кодирования : UTC 2013-01-08 00:31:34 Программа кодирования : mkvmerge v5.8.0 ('No Sleep / Pillow') built on Sep 2 2012 15:37:04 Библиотека кодирования : libebml v1.2.3 + libmatroska v1.3.0 Видео Идентификатор : 1 Формат : AVC Формат/Информация : Advanced Video Codec Профиль формата : High@L4.1 Параметр CABAC формата : Да Параметр ReFrames формата : 5 кадров Идентификатор кодека : V_MPEG4/ISO/AVC Продолжительность : 2 ч. 12 м. Битрейт : 5350 Кбит/сек Ширина : 1920 пикселей Высота : 816 пикселей Соотношение сторон : 2,35:1 Частота кадров : 25,000 кадров/сек Цветовое пространство : YUV Субдискретизация насыщенности : 4:2:0 Битовая глубина : 8 бит Тип развёртки : Прогрессивная Бит/(Пиксели*Кадры) : 0.137 Размер потока : 4,82 Гбайт (84%) Заголовок : Release by AlexKa Библиотека кодирования : x264 core 129 r2230 1cffe9f Настройки программы : cabac=1 / ref=5 / deblock=1:0:0 / analyse=0x3:0x133 / me=umh / subme=10 / psy=1 / psy_rd=1.00:0.00 / mixed_ref=1 / me_range=32 / chroma_me=1 / trellis=2 / 8x8dct=1 / cqm=0 / deadzone=21,11 / fast_pskip=0 / chroma_qp_offset=-2 / threads=12 / lookahead_threads=2 / sliced_threads=0 / nr=0 / decimate=0 / interlaced=0 / bluray_compat=0 / constrained_intra=0 / bframes=5 / b_pyramid=2 / b_adapt=2 / b_bias=0 / direct=3 / weightb=1 / open_gop=0 / weightp=2 / keyint=250 / keyint_min=25 / scenecut=40 / intra_refresh=0 / rc=2pass / mbtree=0 / bitrate=5350 / ratetol=1.0 / qcomp=0.60 / qpmin=0 / qpmax=69 / qpstep=4 / cplxblur=20.0 / qblur=0.5 / ip_ratio=1.40 / pb_ratio=1.30 / aq=1:0.70 Язык : Danish Аудио #1 Идентификатор : 2 Формат : AC-3 Формат/Информация : Audio Coding 3 Расширение режима : CM (complete main) Идентификатор кодека : A_AC3 Продолжительность : 2 ч. 12 м. Вид битрейта : Постоянный Битрейт : 448 Кбит/сек Каналы : 6 каналов Расположение каналов : Front: L C R, Side: L R, LFE Частота : 48,0 КГц Битовая глубина : 16 бит Метод сжатия : С потерями Размер потока : 423 Мбайт (7%) Заголовок : Rus Язык : Russian Аудио #2 Идентификатор : 3 Формат : AC-3 Формат/Информация : Audio Coding 3 Расширение режима : CM (complete main) Идентификатор кодека : A_AC3 Продолжительность : 2 ч. 12 м. Вид битрейта : Постоянный Битрейт : 448 Кбит/сек Каналы : 6 каналов Расположение каналов : Front: L C R, Side: L R, LFE Частота : 48,0 КГц Битовая глубина : 16 бит Метод сжатия : С потерями Размер потока : 423 Мбайт (7%) Заголовок : Dan Язык : Danish Текст Идентификатор : 4 Формат : UTF-8 Идентификатор кодека : S_TEXT/UTF8 Идентификатор кодека/Информация : UTF-8 Plain Text Заголовок : Eng Язык : English Меню 00:00:00.000 : :Chapter 01 00:05:00.000 : :Chapter 02 00:10:00.000 : :Chapter 03 00:15:00.000 : :Chapter 04 00:20:00.000 : :Chapter 05 00:25:00.000 : :Chapter 06 00:30:00.000 : :Chapter 07 00:35:00.000 : :Chapter 08 00:40:00.000 : :Chapter 09 00:45:00.000 : :Chapter 10 00:50:00.000 : :Chapter 11 00:55:00.000 : :Chapter 12 01:00:00.000 : :Chapter 13 01:05:00.000 : :Chapter 14 01:10:00.000 : :Chapter 15 01:15:00.000 : :Chapter 16 01:20:00.000 : :Chapter 17 01:25:00.000 : :Chapter 18 01:30:00.000 : :Chapter 19 01:35:00.000 : :Chapter 20 01:40:00.000 : :Chapter 21 01:45:00.000 : :Chapter 22 01:50:00.000 : :Chapter 23 01:55:00.000 : :Chapter 24 02:00:00.000 : :Chapter 25 02:05:00.000 : :Chapter 26 02:10:00.000 : :Chapter 27
[+] x264x264 : frame I:1608 Avg QP:16.74 size:189065 x264 : frame P:41825 Avg QP:19.09 size: 52609 x264 : frame B:154668 Avg QP:21.06 size: 18056

Всего файлов в раздаче: 1 
A.Royal.Affair.2012.BDRip.1080p.Rus.Dan.mkv5.76 GB

Похожие раздачи по запросу - Королевский
2024-06-13 magnet Королевский прилив / The King Tide (2023) WEB-DLRip-AVC | L 1.64 GB ↑ 2 ↓ 1

Комментарии


Зарегистрируйтесь чтобы добавить комментарий
Торрент клиент
byTorrent - программа для загрузки торрент-файлов.

Скачать byTorrent.exe (1,5 МБ)

Скачать byTorrent.zip (0,6 МБ)

Поддержи torrent.by
российских рублей
(300 российских рублей это 4$)

Обратная связь rss

End game ©