↑↓torrent.by
Поиск
Логин:  Регистрация
Пароль:

Черная вдова. Укус смерти / Sting (2024) WEB-DL 1080p от New-Team | D, P

download Скачать торрент-файл   magnet Магнитная ссылка Размер: 6.70 GB Раздают: 0 Качают: 3 Добавлен: 2024-07-06 17:00
Пиры будут получены из сети DHT
Последний сидер был замечен сегодня в 02:22
Черная вдова. Укус смерти / Sting Год выпуска: 2024 Выпущено: Австралия, США / Align, Pictures in Paradise, See Pictures Жанр: ужасы Режиссер: Кия Роуч-Тернер / Kiah Roache-Turner В ролях: Жермен Фаулер, Райан Корр, Алила Браун, Нони Хейзлхерст, Робин Невин, Пенелопа Митчелл, Дэнни Ким, Сильвия Коллока, Тони Джей Блэк, Роулэнд Холмс О фильме: Холодной ненастной ночью в комнату юной Шарлотты через окно падает необычное яйцо, из которого вылупляется странный паук. Зловещее создание становится тайным другом девочки, и ее не настораживает, что паук растет с невообразимой скоростью. Но когда начинают пропадать сначала питомцы соседей, а потом и они сами, Шарлотта понимает, что ее семья и другие выжившие попали в ловушку: за ними охотится гигантский паук, жаждущий человеческой плоти. Продолжительность: 01:31:32 Перевод: #1 :Профессиональный (полное дублирование) | Кириллица #2 :Профессиональный (многоголосый, закадровый) | HDRezka Studio Субтитры: Русские (full (stirlooo)), английские Раздача от : Формат: MKV Качество: WEB-DL 1080p | AMZN Видео: MPEG-4 AVC, 8880 Кбит/с, 1920x1040, (1,85:1) Аудио #1: AC3, 6 ch, 384 Кбит/с | RUS | DUB Аудио #2: E-AC3, 6 ch, 384 Кбит/с | RUS |DUB Аудио #3: AC3, 2 ch, 192 Кбит/с | RUS | MVO Аудио #4: E-AC3, 6 ch, 640 Кбит/с | ENG |
[+] MediaInfoОбщее Уникальный идентификатор : 152382365678232500028541783931313004564 (0x72A3C6AEDBBFD1E0A9C109CC2A5D2014) Полное имя : D:TorrentsSting.2024.1080p.AMZN_от New-Team.mkv Формат : Matroska Версия формата : Version 4 Размер файла : 6,70 Гбайт Продолжительность : 1 ч. 31 м. Общий поток : 10,5 Мбит/сек Название фильма : Sting.2024.1080p.AMZN_от New-Team Дата кодирования : UTC 2024-07-06 11:51:55 Программа кодирования : mkvmerge v79.0 ('Funeral Pyres') 64-bit Библиотека кодирования : libebml v1.4.4 + libmatroska v1.7.1 Видео Идентификатор : 1 Формат : AVC Формат/Информация : Advanced Video Codec Профиль формата : High@L4 Настройки формата : CABAC / 4 Ref Frames Параметр CABAC формата : Да Параметр RefFrames формата : 4 кадра Идентификатор кодека : V_MPEG4/ISO/AVC Продолжительность : 1 ч. 31 м. Вид битрейта : Постоянный Битрейт : 8 880 Кбит/сек Номинальный битрейт : 10 000 Кбит/сек Ширина : 1 920 пикселей Высота : 1 040 пикселей Соотношение сторон : 1,85:1 Режим частоты кадров : Постоянный Частота кадров : 24,000 кадра/сек Цветовое пространство : YUV Субдискретизация насыщенности : 4:2:0 Битовая глубина : 8 бит Тип развёртки : Прогрессивная Бит/(Пиксели*Кадры) : 0.185 Размер потока : 5,68 Гбайт (85%) Default : Да Forced : Нет Цветовой диапазон : Limited Основные цвета : BT.709 Характеристики трансфера : BT.709 Коэффициенты матрицы : BT.709 Аудио #1 Идентификатор : 2 Формат : AC-3 Формат/Информация : Audio Coding 3 Коммерческое название : Dolby Digital Идентификатор кодека : A_AC3 Продолжительность : 1 ч. 31 м. Вид битрейта : Постоянный Битрейт : 384 Кбит/сек Каналы : 6 каналов Channel layout : L R C LFE Ls Rs Частота : 48,0 КГц Частота кадров : 31,250 кадров/сек (1536 SPF) Метод сжатия : С потерями Размер потока : 251 Мбайт (4%) Заголовок : DUB - Кириллица Язык : Russian Service kind : Complete Main Default : Да Forced : Нет Аудио #2 Идентификатор : 3 Формат : E-AC-3 Формат/Информация : Enhanced AC-3 Коммерческое название : Dolby Digital Plus Идентификатор кодека : A_EAC3 Продолжительность : 1 ч. 31 м. Вид битрейта : Постоянный Битрейт : 384 Кбит/сек Каналы : 6 каналов Channel layout : L R C LFE Ls Rs Частота : 48,0 КГц Частота кадров : 31,250 кадров/сек (1536 SPF) Метод сжатия : С потерями Размер потока : 251 Мбайт (4%) Заголовок : DUB - Кириллица Язык : Russian Service kind : Complete Main Default : Нет Forced : Нет Аудио #3 Идентификатор : 4 Формат : AC-3 Формат/Информация : Audio Coding 3 Коммерческое название : Dolby Digital Идентификатор кодека : A_AC3 Продолжительность : 1 ч. 31 м. Вид битрейта : Постоянный Битрейт : 192 Кбит/сек Каналы : 2 канала Channel layout : L R Частота : 48,0 КГц Частота кадров : 31,250 кадров/сек (1536 SPF) Метод сжатия : С потерями Размер потока : 126 Мбайт (2%) Заголовок : MVO - HDRezka Studio Язык : Russian Service kind : Complete Main Default : Нет Forced : Нет Аудио #4 Идентификатор : 5 Формат : E-AC-3 Формат/Информация : Enhanced AC-3 Коммерческое название : Dolby Digital Plus Идентификатор кодека : A_EAC3 Продолжительность : 1 ч. 31 м. Вид битрейта : Постоянный Битрейт : 640 Кбит/сек Каналы : 6 каналов Channel layout : L R C LFE Ls Rs Частота : 48,0 КГц Частота кадров : 31,250 кадров/сек (1536 SPF) Метод сжатия : С потерями Размер потока : 419 Мбайт (6%) Заголовок : Original Язык : English Service kind : Complete Main Default : Нет Forced : Нет Текст #1 Идентификатор : 6 Формат : UTF-8 Идентификатор кодека : S_TEXT/UTF8 Идентификатор кодека/Информация : UTF-8 Plain Text Продолжительность : 1 ч. 24 м. Битрейт : 52 бит/сек Count of elements : 715 Размер потока : 32,2 Кбайт (0%) Заголовок : ] Язык : Russian Default : Нет Forced : Нет Текст #2 Идентификатор : 7 Формат : UTF-8 Идентификатор кодека : S_TEXT/UTF8 Идентификатор кодека/Информация : UTF-8 Plain Text Продолжительность : 1 ч. 26 м. Битрейт : 35 бит/сек Count of elements : 801 Размер потока : 22,7 Кбайт (0%) Заголовок : Язык : English Default : Нет Forced : Нет Текст #3 Идентификатор : 8 Формат : UTF-8 Идентификатор кодека : S_TEXT/UTF8 Идентификатор кодека/Информация : UTF-8 Plain Text Продолжительность : 1 ч. 26 м. Битрейт : 45 бит/сек Count of elements : 1128 Размер потока : 29,0 Кбайт (0%) Заголовок : Язык : English Default : Нет Forced : Нет Меню 00:00:00.000 : en:Scene 01 01:31:27.000 : en:End Credits

Всего файлов в раздаче: 1 
Sting.2024.1080p.AMZN_от New-Team.mkv6.70 GB

Похожие раздачи по запросу - Черная
2024-07-07 magnet Черная вдова. Укус смерти / Sting (2024) WEB-DL 720p от селезень | D, P 3.55 GB ↑ 0 ↓ 2
2024-07-06 magnet Черная вдова. Укус смерти / Sting (2024) WEB-DL-HEVC 2160p | 4K | SDR | D 8.01 GB ↑ 0 ↓ 5
2024-06-24 magnet Сталкер. Черная плесень / Black Mold (2023) WEB-DL 1080p от ELEKTRI4KA | D 3.77 GB ↑ 0 ↓ 0
2024-06-24 magnet Сталкер. Черная плесень / Black Mold (2023) WEB-DLRip от ELEKTRI4KA | D 1.46 GB ↑ 0 ↓ 0
2024-06-24 magnet Черная книга няни / Babysitter's Black Book (2015) WEB-DLRip-AVC от ExKinoRay | P 2.14 GB ↑ 0 ↓ 0
2024-05-17 magnet Черная вдова. Укус смерти / Sting (2024) WEB-DLRip-AVC от New-Team | P | HDRezka Studio 1.65 GB ↑ 0 ↓ 1
2024-05-17 magnet Черная вдова. Укус смерти / Sting (2024) WEB-DL 1080p от New-Team | P | HDRezka Studio 6.21 GB ↑ 0 ↓ 0

Комментарии


Зарегистрируйтесь чтобы добавить комментарий
Торрент клиент
byTorrent - программа для загрузки торрент-файлов.

Скачать byTorrent.exe (1,5 МБ)

Скачать byTorrent.zip (0,6 МБ)

Поддержи torrent.by
российских рублей
(300 российских рублей это 4$)

Обратная связь rss

End game ©