↑↓torrent.by
Поиск
Логин:  Регистрация
Пароль:

Шпион / Spy (2015) WEB-DLRip-AVC от DoMiNo | D | Open Matte | Локализованная версия

download Скачать торрент-файл   magnet Магнитная ссылка Размер: 2.19 GB Добавлен: 2024-07-06 17:00
Пиры будут получены из сети DHT
Последний сидер был замечен 2024-07-07 14:21
Информация о фильме Название: Шпион Оригинальное название: Spy Год выхода: 2015 Жанр: боевик, комедия, криминал Режиссер: Пол Фиг В ролях: Мелисса МакКарти, Джейсон Стэйтем, Джуд Лоу, Роуз Бирн, Миранда Харт, Бобби Каннавейл, Морена Баккарин, Раад Рави, Джессика Чаффин, Сэм Ричардсон, Кэти Дипполд, Джейм Пачеко, Ромейн Апельбаум, Ричард Брэйк О фильме: Сьюзан Купер всю свою жизнь мечтала стать секретным агентом и даже устроилась работать в ЦРУ. Однако, дальше сотрудника самой низкой ступени ей так и не удалось продвинуться. Понимая, что осуществить свою мечту практически невозможно, она все-таки продолжает надеяться на лучшее и с нетерпением ожидает своего шанса. И вскоре судьба дарит ей такую возможность. Лучший агент проваливает секретное задание, в ходе которого он должен был выяснить местонахождение ядерной бомбы, но, совершенно случайно, застрелил единственного человека, владеющего этой информацией. Через некоторое время службе разведки становится известно, что Рейна Боянова знает, где находится бомба, но она также знает в лицо всех секретных агентов ЦРУ. Теперь у руководства не остается другого выбора, как воспользоваться услугами Сьюзан Купер, но сможет ли она справиться со столь сложной миссией?.. Страна: США, Великобритания, Франция, Венгрия, Германия Выпущено: Twentieth Century Fox, Chernin Entertainment, Feigco Entertainment Продолжительность: 02:00:04 Перевод: Профессиональный (дублированный) Субтитры: Русские (forced hardsub, full), английские Файл Формат: Matroska Качество: WEB-DLRip-AVC | Open Matte Видео: 1024x576 (16x9) at 23.976 fps, x264@L4.1, ~2155 kbps, 0.152 bpp Аудио: AC3, 6 ch, ~448 kbps - | Русский | - Формат субтитров: softsub (SRT) ***Релиз от: -=DoMiNo=-
[+] M/Ix264 : frame I:2528 Avg QP:16.52 size: 61379 x264 : frame P:38470 Avg QP:17.71 size: 24144 x264 : frame B:131727 Avg QP:19.65 size: 6506 General Format : Matroska Format version : Version 4 File size : 2.19 GiB Duration : 2 h 0 min Overall bit rate : 2 606 kb/s Movie name : Шпион.(2015).WEBRip-AVC.O.M. Encoded date : UTC 2020-08-04 06:02:54 Writing application : mkvmerge v49.0.0 ('Sick Of Losing Soulmates') 64-bit Writing library : libebml v1.4.0 + libmatroska v1.6.1 Cover : Yes Attachments : Cover.jpg / Cover 2.jpg Video ID : 1 Format : AVC Format/Info : Advanced Video Codec Format profile : High@L4.1 Format settings : CABAC / 10 Ref Frames Format settings, CABAC : Yes Format settings, Reference : 10 frames Codec ID : V_MPEG4/ISO/AVC Duration : 2 h 0 min Bit rate : 2 155 kb/s Width : 1 024 pixels Height : 576 pixels Display aspect ratio : 16:9 Frame rate mode : Constant Frame rate : 23.976 (24000/1001) FPS Color space : YUV Chroma subsampling : 4:2:0 Bit depth : 8 bits Scan type : Progressive Bits/(Pixel*Frame) : 0.152 Stream size : 1.81 GiB (83%) Title : -=DoMiNo=- | Open Matte Writing library : x264 core 161 r3018 db0d417 Encoding settings : cabac=1 / ref=10 / deblock=1:-3:-3 / analyse=0x3:0x133 / me=umh / subme=10 / psy=1 / psy_rd=1.00:0.20 / mixed_ref=1 / me_range=32 / chroma_me=1 / trellis=2 / 8x8dct=1 / cqm=0 / deadzone=21,11 / fast_pskip=0 / chroma_qp_offset=-3 / threads=6 / lookahead_threads=1 / sliced_threads=0 / nr=0 / decimate=1 / interlaced=0 / bluray_compat=0 / constrained_intra=0 / bframes=9 / b_pyramid=2 / b_adapt=2 / b_bias=0 / direct=1 / weightb=1 / open_gop=0 / weightp=2 / keyint=250 / keyint_min=23 / scenecut=40 / intra_refresh=0 / rc_lookahead=60 / rc=crf / mbtree=0 / crf=18.8 / qcomp=0.60 / qpmin=0 / qpmax=69 / qpstep=4 / vbv_maxrate=50000 / vbv_bufsize=62500 / crf_max=0.0 / nal_hrd=none / filler=0 / ip_ratio=1.40 / pb_ratio=1.30 / aq=1:1.00 Language : English Default : Yes Forced : No Color range : Limited Color primaries : BT.709 Transfer characteristics : BT.709 Matrix coefficients : BT.709 Audio ID : 2 Format : AC-3 Format/Info : Audio Coding 3 Commercial name : Dolby Digital Codec ID : A_AC3 Duration : 2 h 0 min Bit rate mode : Constant Bit rate : 448 kb/s Channel(s) : 6 channels Channel layout : L R C LFE Ls Rs Sampling rate : 48.0 kHz Frame rate : 31.250 FPS (1536 SPF) Compression mode : Lossy Stream size : 385 MiB (17%) Title : DUB Language : Russian Service kind : Complete Main Default : Yes Forced : No Text #1 ID : 3 Format : UTF-8 Codec ID : S_TEXT/UTF8 Codec ID/Info : UTF-8 Plain Text Duration : 1 h 58 min Bit rate : 121 b/s Count of elements : 2203 Stream size : 106 KiB (0%) Language : Russian Default : No Forced : No Text #2 ID : 4 Format : UTF-8 Codec ID : S_TEXT/UTF8 Codec ID/Info : UTF-8 Plain Text Duration : 1 h 58 min Bit rate : 80 b/s Count of elements : 2207 Stream size : 70.0 KiB (0%) Language : English Default : No Forced : No Menu 00:00:00.000 : :Глава 01 00:10:00.000 : :Глава 02 00:20:00.000 : :Глава 03 00:30:00.000 : :Глава 04 00:40:00.000 : :Глава 05 00:50:00.000 : :Глава 06 01:00:00.000 : :Глава 07 01:10:00.000 : :Глава 08 01:20:00.000 : :Глава 09 01:30:00.000 : :Глава 10 01:40:00.000 : :Глава 11 01:50:00.000 : :Глава 12 02:00:00.000 : :Глава 13
[+] Примечание & Сравнения:Театральная локализованная версия. Open Matte версия фильма имеет большее наполнение кадра по сравнению с Blu-ray. ***Сравнения => BD vs WEBRip Open Matte
[+] Скриншоты

Всего файлов в раздаче: 1 
Шпион.(2015).WEBRip-AVC.O.M.[-=DoMiNo=-].mkv2.19 GB

Похожие раздачи по запросу - Шпион
2024-07-22 magnet Мой шпион: Вечный город / My Spy: The Eternal City (2024) WEB-DL 1080p от JNS82 | L | LE-Production 5.84 GB ↑ 0 ↓ 5
2024-07-22 magnet Мой шпион: Вечный город / My Spy: The Eternal City (2024) WEB-DLRip-AVC от ExKinoRay | P2 | ViruseProject 745.01 MB ↑ 0 ↓ 2
2024-07-20 magnet Мой шпион: Вечный город / My Spy: The Eternal City (2024) WEB-DLRip 720p от DoMiNo & селезень | P2 | ViruseProject 2.20 GB ↑ 1 ↓ 1
2024-07-20 magnet Мой шпион: Вечный город / My Spy: The Eternal City (2024) WEB-DLRip от New-Team | P2 | ViruseProject 1.46 GB ↑ 0 ↓ 1
2024-07-20 magnet Мой шпион: Вечный город / My Spy: The Eternal City (2024) WEB-DL 1080p | ViruseProject 5.99 GB ↑ 2 ↓ 4
2024-07-11 magnet Шпион на всю голову / Peter Five Eight (2023) WEB-DLRip-AVC от DoMiNo & селезень | D | Мосфильм-Мастер | Локализованная версия 1.46 GB ↑ 1 ↓ 0
2024-07-11 magnet Шпион на всю голову / Peter Five Eight (2023) WEB-DL 1080p от ELEKTRI4KA | D 4.07 GB ↑ 0 ↓ 2

Комментарии


Зарегистрируйтесь чтобы добавить комментарий
Торрент клиент
byTorrent - программа для загрузки торрент-файлов.

Скачать byTorrent.exe (1,5 МБ)

Скачать byTorrent.zip (0,6 МБ)

Поддержи torrent.by
российских рублей
(300 российских рублей это 4$)

Обратная связь rss

End game ©