↑↓torrent.by
Поиск
Логин:  Регистрация
Пароль:

Шпион / Spy (2015) BDRip-HEVC 1080p от RIPS CLUB | D, A | Unrated

download Скачать торрент-файл   magnet Магнитная ссылка Размер: 8.88 GB Добавлен: 2024-07-06 17:00
Пиры будут получены из сети DHT
Последний сидер был замечен вчера в 18:52
Название: Шпион Оригинальное название: Spy Год производства: 2015 Производство: США / Feigco Entertainment, Twentieth Century Fox Жанр: боевик, комедия Режиссёр: Пол Фиг В ролях: Мелисса Маккарти, Джейсон Стэйтем, Джуд Лоу, Роуз Бирн, Миранда Харт, Бобби Каннавале, Морена Баккарин, Питер Серафинович, Эллисон Дженни, Ричард Брейк О фильме: Сьюзан Купер всю свою жизнь мечтала стать секретным агентом и даже устроилась работать в ЦРУ. Однако, дальше сотрудника самой низкой ступени ей так и не удалось продвинуться. Понимая, что осуществить свою мечту практически невозможно, она всё-таки продолжает надеяться на лучшее и с нетерпением ожидает своего шанса. И вскоре судьба дарит ей такую возможность. Лучший агент проваливает секретное задание, в ходе которого он должен был выяснить местонахождение ядерной бомбы, но, совершенно случайно, застрелил единственного человека, владеющего этой информацией. Через некоторое время службе разведки становится известно, что Рейна Боянова знает, где находится бомба, но она также знает в лицо всех секретных агентов ЦРУ. Теперь у руководства не остаётся другого выбора, как воспользоваться услугами Сьюзан Купер, но сможет ли она справиться со столь сложной миссией?.. Продолжительность: 02:10:23 Перевод: дублированный, авторский Качество: BDRip-HEVC 1080p Кодек: HEVC (x265) Видео: 1920x804, ~6671 Kbps, HEVC (Main10@L.4.1@High) 10 бит Звук: Аудио1: AC3, 6 ch, 448 Kbps - Русский, DUB Аудио2: AC3, 6 ch, 448 Kbps - Русский, AVO (Андрей Гаврилов) Аудио3: AC3, 6 ch, 448 Kbps - Русский, AVO (Юрий Живов) Аудио4: AC3, 6 ch, 640 Kbps - Русский, AVO (Михаил Яроцкий) Аудио5: AC3, 6 ch, 448 Kbps - Украинский, DUB (Postmodern) Аудио6: AC3, 6 ch, 640 Kbps - Английский Субтитры: русские (full, forced), украинские (full, forced), английские (full, forced, SDH) Навигация по главам: Есть
[+] Лог (x265 info) + Mediainfo x265 : frame I: 788, Avg QP:17.69 kb/s: 19884.93 x265 : frame P: 34561, Avg QP:19.10 kb/s: 13299.50 x265 : frame B: 152214, Avg QP:20.88 kb/s: 5096.75 x265 : Weighted P-Frames: Y:4.8% UV:4.2% x265 : Weighted B-Frames: Y:3.8% UV:3.2% x265 : encoded 187563 frames in 119817.05s (1.57 fps), 6670.34 kb/s, Avg QP:20.54 Общее Уникальный идентификатор : 294652750697890705538857003107416402257 (0xDDAC0E3A432BC95A020B5955DDBDE951) Полное имя : .Шпион.Spy.2015.Unrated.BDRip-HEVC.1080p.mkv Формат : Matroska Версия формата : Version 4 Размер файла : 8,88 Гбайт Продолжительность : 2 ч. 10 мин. Общий битрейт : 9 748 Кбит/сек Частота кадров : 23,976 кадра/сек Название фильма : Шпион / Шпион Кодирование выполнил : OldGamer Тип содержимого : Movie Описание : «Одна из пижонов. Одна из шпионов» Дата выпуска : 2015-05-06 Дата записи : 2015-05-06 Программа кодирования : mkvmerge v85.0 ('Shame For You') 64-bit Библиотека кодирования : libebml v1.4.5 + libmatroska v1.7.1 / xvid4psp5 Обложка : Yes Attachments : cover.jpg ACTOR : Мелисса Маккарти, Роуз Бирн, Джейсон Стейтем, Джуд Лоу, Miranda Hart, Allison Janney, Bobby Cannavale, Peter Serafinowicz, Морена Баккарин, Raad Rawi, Jessica Chaffin, Sam Richardson, Katie Dippold, Jaime Pacheco, Romain Apelbaum, Richard Brake, Stev... ARTIST : Мелисса Маккарти, Роуз Бирн, Джейсон Стейтем, Джуд Лоу, Miranda Hart, Allison Janney, Bobby Cannavale, Peter Serafinowicz, Морена Баккарин, Raad Rawi, Jessica Chaffin, Sam Richardson, Katie Dippold, Jaime Pacheco, Romain Apelbaum, Richard Brake, Stev... DIRECTOR : Paul Feig GENRE : боевик, комедия, криминал LAW_RATING : R PRODUCER : Питер Чернин, Jessie Henderson, Дженно Топпинг, Paul Feig PRODUCTION_STUDIO : TSG Entertainment RATING : R SCREENPLAY_BY : Paul Feig SUMMARY : «Одна из пижонов. Одна из шпионов» SYNOPSIS : Сьюзан Купер всю свою жизнь мечтала стать секретным агентом и даже устроилась работать в ЦРУ. Однако, дальше сотрудника самой низкой ступени ей так и не удалось продвинуться. Понимая, что осуществить свою мечту практически невозможно, она все таки продолжает надеяться на лучшее и с нетерпением ожидает своего шанса. И вскоре судьба дарит ей такую возможность. Лучший агент проваливает секретное задание, в ходе которого он должен был выяснить местонахождение ядерной бомбы, но, совершенно случайно, застрелил единственного человека, владеющего этой информацией. WRITTEN_BY : Paul Feig Видео Идентификатор : 1 Формат : HEVC Формат/Информация : High Efficiency Video Coding Профиль формата : Main 10@L4.1@High Идентификатор кодека : V_MPEGH/ISO/HEVC Продолжительность : 2 ч. 10 мин. Битрейт : 6 671 Кбит/сек Ширина : 1 920 пикселей Высота : 804 пикселя Соотношение сторон дисплея : 2,39:1 Режим частоты кадров : Постоянный Частота кадров : 23,976 (24000/1001) кадра/сек Цветовое пространство : YUV Цветовая субдискретизация : 4:2:0 Битовая глубина : 10 бит Бит/(Пиксели*Кадры) : 0.180 Размер потока : 6,08 Гбайт (68%) Заголовок : Spy / Rip by OldGamer Библиотека кодирования : x265 3.6+27-8787e8702: 10bit Параметры библиотеки кодирования : cpuid=1111039 / frame-threads=3 / numa-pools=8 / wpp / no-pmode / no-pme / no-psnr / no-ssim / log-level=2 / input-csp=1 / input-res=1920x804 / interlace=0 / total-frames=187563 / level-idc=41 / high-tier=1 / uhd-bd=0 / ref=5 / no-allow-non-conformance / no-repeat-headers / annexb / no-aud / no-eob / no-eos / no-hrd / info / hash=0 / temporal-layers=0 / open-gop / min-keyint=23 / keyint=240 / gop-lookahead=0 / bframes=16 / b-adapt=2 / b-pyramid / bframe-bias=0 / rc-lookahead=60 / lookahead-slices=0 / scenecut=40 / no-hist-scenecut / radl=0 / no-splice / no-intra-refresh / ctu=32 / min-cu-size=8 / rect / amp / max-tu-size=32 / tu-inter-depth=4 / tu-intra-depth=4 / limit-tu=1 / rdoq-level=2 / dynamic-rd=0.00 / no-ssim-rd / signhide / no-tskip / nr-intra=0 / nr-inter=0 / no-constrained-intra / no-strong-intra-smoothing / max-merge=5 / limit-refs=3 / no-limit-modes / me=3 / subme=7 / merange=57 / temporal-mvp / no-frame-dup / no-hme / weightp / weightb / no-analyze-src-pics / deblock=-2:-2 / no-sao / no-sao-non-deblock / rd=6 / selective-sao=0 / no-early-skip / no-rskip / no-fast-intra / no-tskip-fast / no-cu-lossless / b-intra / no-splitrd-skip / rdpenalty=0 / psy-rd=2.00 / psy-rdoq=1.00 / no-rd-refine / no-lossless / cbqpoffs=0 / crqpoffs=0 / rc=crf / crf=20.1 / qcomp=0.60 / qpstep=4 / stats-write=0 / stats-read=0 / vbv-maxrate=50000 / vbv-bufsize=50000 / vbv-init=0.9 / min-vbv-fullness=50.0 / max-vbv-fullness=80.0 / crf-max=0.0 / crf-min=0.0 / ipratio=1.40 / pbratio=1.30 / aq-mode=1 / aq-strength=1.00 / no-cutree / zone-count=1 / zones: / start-frame=187288 / end-frame=187563 / qp=36 / no-strict-cbr / qg-size=32 / no-rc-grain / qpmax=69 / qpmin=0 / no-const-vbv / sar=1 / overscan=0 / videoformat=5 / range=0 / colorprim=2 / transfer=2 / colormatrix=2 / chromaloc=0 / display-window=0 / cll=0,0 / min-luma=0 / max-luma=1023 / log2-max-poc-lsb=8 / vui-timing-info / vui-hrd-info / slices=1 / no-opt-qp-pps / no-opt-ref-list-length-pps / no-multi-pass-opt-rps / scenecut-bias=0.00 / no-opt-cu-delta-qp / no-aq-motion / no-hdr10 / no-hdr10-opt / no-dhdr10-opt / no-idr-recovery-sei / analysis-reuse-level=0 / analysis-save-reuse-level=0 / analysis-load-reuse-level=0 / scale-factor=0 / refine-intra=0 / refine-inter=0 / refine-mv=1 / refine-ctu-distortion=0 / no-limit-sao / ctu-info=0 / no-lowpass-dct / refine-analysis-type=0 / copy-pic=1 / max-ausize-factor=1.0 / no-dynamic-refine / no-single-sei / no-hevc-aq / no-svt / no-field / qp-adaptation-range=1.00 / scenecut-aware-qp=0conformance-window-offsets / right=0 / bottom=0 / decoder-max-rate=0 / no-vbv-live-multi-pass / no-mcstf / no-sbrc Язык : Английский По умолчанию : Да Принудительно : Нет Аудио #1 Идентификатор : 2 Формат : AC-3 Формат/Информация : Audio Coding 3 Коммерческое название : Dolby Digital Идентификатор кодека : A_AC3 Продолжительность : 2 ч. 10 мин. Вид битрейта : Постоянный Битрейт : 448 Кбит/сек Канал(-ы) : 6 каналов Расположение каналов : L R C LFE Ls Rs Частота дискретизации : 48,0 КГц Частота кадров : 31,250 кадров/сек (1536 SPF) Метод сжатия : С потерями Размер потока : 418 Мбайт (5%) Заголовок : DUB Язык : Русский Вид сервиса : Complete Main По умолчанию : Да Принудительно : Нет Нормализация звука речи : -31 dB compr : 6.02 dB dynrng : 6.02 dB cmixlev : -3.0 dB surmixlev : -3 dB dmixmod : Lt/Rt ltrtcmixlev : -3.0 dB ltrtsurmixlev : -3.0 dB lorocmixlev : -3.0 dB lorosurmixlev : -3.0 dB dialnorm_Average : -31 dB dialnorm_Minimum : -31 dB dialnorm_Maximum : -31 dB Аудио #2 Идентификатор : 3 Формат : AC-3 Формат/Информация : Audio Coding 3 Коммерческое название : Dolby Digital Идентификатор кодека : A_AC3 Продолжительность : 2 ч. 10 мин. Вид битрейта : Постоянный Битрейт : 448 Кбит/сек Канал(-ы) : 6 каналов Расположение каналов : L R C LFE Ls Rs Частота дискретизации : 48,0 КГц Частота кадров : 31,250 кадров/сек (1536 SPF) Метод сжатия : С потерями Размер потока : 418 Мбайт (5%) Заголовок : AVO (Андрей Гаврилов) Язык : Русский Вид сервиса : Complete Main По умолчанию : Нет Принудительно : Нет Нормализация звука речи : -31 dB cmixlev : -4.5 dB surmixlev : -6 dB dialnorm_Average : -31 dB dialnorm_Minimum : -31 dB dialnorm_Maximum : -31 dB Аудио #3 Идентификатор : 4 Формат : AC-3 Формат/Информация : Audio Coding 3 Коммерческое название : Dolby Digital Идентификатор кодека : A_AC3 Продолжительность : 2 ч. 10 мин. Вид битрейта : Постоянный Битрейт : 448 Кбит/сек Канал(-ы) : 6 каналов Расположение каналов : L R C LFE Ls Rs Частота дискретизации : 48,0 КГц Частота кадров : 31,250 кадров/сек (1536 SPF) Метод сжатия : С потерями Размер потока : 418 Мбайт (5%) Заголовок : AVO (Юрий Живов) Язык : Русский Вид сервиса : Complete Main По умолчанию : Нет Принудительно : Нет Нормализация звука речи : -31 dB cmixlev : -4.5 dB surmixlev : -6 dB dialnorm_Average : -31 dB dialnorm_Minimum : -31 dB dialnorm_Maximum : -31 dB Аудио #4 Идентификатор : 5 Формат : AC-3 Формат/Информация : Audio Coding 3 Коммерческое название : Dolby Digital Идентификатор кодека : A_AC3 Продолжительность : 2 ч. 10 мин. Вид битрейта : Постоянный Битрейт : 640 Кбит/сек Канал(-ы) : 6 каналов Расположение каналов : L R C LFE Ls Rs Частота дискретизации : 48,0 КГц Частота кадров : 31,250 кадров/сек (1536 SPF) Метод сжатия : С потерями Размер потока : 597 Мбайт (7%) Заголовок : VO (Михаил Яроцкий) Язык : Русский Вид сервиса : Complete Main По умолчанию : Нет Принудительно : Нет Нормализация звука речи : -27 dB compr : -0.28 dB cmixlev : -3.0 dB surmixlev : -3 dB mixlevel : 285 dB roomtyp : Small dialnorm_Average : -27 dB dialnorm_Minimum : -27 dB dialnorm_Maximum : -27 dB Аудио #5 Идентификатор : 6 Формат : AC-3 Формат/Информация : Audio Coding 3 Коммерческое название : Dolby Digital Идентификатор кодека : A_AC3 Продолжительность : 2 ч. 10 мин. Вид битрейта : Постоянный Битрейт : 448 Кбит/сек Канал(-ы) : 6 каналов Расположение каналов : L R C LFE Ls Rs Частота дискретизации : 48,0 КГц Частота кадров : 31,250 кадров/сек (1536 SPF) Метод сжатия : С потерями Размер потока : 418 Мбайт (5%) Заголовок : DUB (Postmodern) Язык : Украинский Вид сервиса : Complete Main По умолчанию : Нет Принудительно : Нет Нормализация звука речи : -31 dB cmixlev : -4.5 dB surmixlev : -6 dB dialnorm_Average : -31 dB dialnorm_Minimum : -31 dB dialnorm_Maximum : -31 dB Аудио #6 Идентификатор : 7 Формат : AC-3 Формат/Информация : Audio Coding 3 Коммерческое название : Dolby Digital Идентификатор кодека : A_AC3 Продолжительность : 2 ч. 10 мин. Вид битрейта : Постоянный Битрейт : 640 Кбит/сек Канал(-ы) : 6 каналов Расположение каналов : L R C LFE Ls Rs Частота дискретизации : 48,0 КГц Частота кадров : 31,250 кадров/сек (1536 SPF) Метод сжатия : С потерями Размер потока : 597 Мбайт (7%) Язык : Английский Вид сервиса : Complete Main По умолчанию : Нет Принудительно : Нет Нормализация звука речи : -27 dB compr : -0.28 dB cmixlev : -3.0 dB surmixlev : -3 dB mixlevel : 285 dB roomtyp : Small dialnorm_Average : -27 dB dialnorm_Minimum : -27 dB dialnorm_Maximum : -27 dB Текст #1 Идентификатор : 8 Формат : UTF-8 Идентификатор кодека : S_TEXT/UTF8 Идентификатор кодека/Информация : UTF-8 Plain Text Продолжительность : 2 ч. 9 мин. Битрейт : 0 бит/сек Частота кадров : 0,002 кадр/сек Число элементов : 16 Размер потока : 566 байт (0%) Заголовок : Russian @ forced SRT Язык : Русский По умолчанию : Да Принудительно : Нет Текст #2 Идентификатор : 9 Формат : UTF-8 Идентификатор кодека : S_TEXT/UTF8 Идентификатор кодека/Информация : UTF-8 Plain Text Продолжительность : 2 ч. 9 мин. Битрейт : 123 бит/сек Частота кадров : 0,311 кадр/сек Число элементов : 2418 Размер потока : 117 КиБ (0%) Заголовок : Russian @ SRT Язык : Русский По умолчанию : Нет Принудительно : Нет Текст #3 Идентификатор : 10 Формат : UTF-8 Идентификатор кодека : S_TEXT/UTF8 Идентификатор кодека/Информация : UTF-8 Plain Text Продолжительность : 2 ч. 9 мин. Битрейт : 0 бит/сек Частота кадров : 0,002 кадр/сек Число элементов : 14 Размер потока : 511 байт (0%) Заголовок : Ukrainian @ forced SRT Язык : Украинский По умолчанию : Нет Принудительно : Нет Текст #4 Идентификатор : 11 Формат : UTF-8 Идентификатор кодека : S_TEXT/UTF8 Идентификатор кодека/Информация : UTF-8 Plain Text Продолжительность : 2 ч. 9 мин. Битрейт : 134 бит/сек Частота кадров : 0,312 кадр/сек Число элементов : 2421 Размер потока : 127 КиБ (0%) Заголовок : Ukrainian @ SRT Язык : Украинский По умолчанию : Нет Принудительно : Нет Текст #5 Идентификатор : 12 Формат : UTF-8 Идентификатор кодека : S_TEXT/UTF8 Идентификатор кодека/Информация : UTF-8 Plain Text Продолжительность : 26 с. 277 мс. Битрейт : 45 бит/сек Частота кадров : 0,304 кадр/сек Число элементов : 8 Размер потока : 149 байт (0%) Заголовок : English @ forced SRT Язык : Английский По умолчанию : Нет Принудительно : Нет Текст #6 Идентификатор : 13 Формат : UTF-8 Идентификатор кодека : S_TEXT/UTF8 Идентификатор кодека/Информация : UTF-8 Plain Text Продолжительность : 2 ч. 8 мин. Битрейт : 86 бит/сек Частота кадров : 0,354 кадр/сек Число элементов : 2738 Размер потока : 81,8 КиБ (0%) Заголовок : English @ SRT Язык : Английский По умолчанию : Нет Принудительно : Нет Текст #7 Идентификатор : 14 Формат : UTF-8 Идентификатор кодека : S_TEXT/UTF8 Идентификатор кодека/Информация : UTF-8 Plain Text Продолжительность : 2 ч. 9 мин. Битрейт : 89 бит/сек Частота кадров : 0,372 кадр/сек Число элементов : 2883 Размер потока : 84,9 КиБ (0%) Заголовок : English @ SRT SDH Язык : Английский По умолчанию : Нет Принудительно : Нет Меню 00:00:00.000 : en:Chapter 1 00:03:38.572 : en:Chapter 2 00:07:46.111 : en:Chapter 3 00:10:08.670 : en:Chapter 4 00:14:11.121 : en:Chapter 5 00:15:42.838 : en:Chapter 6 00:20:54.357 : en:Chapter 7 00:23:25.842 : en:Chapter 8 00:27:59.907 : en:Chapter 9 00:31:11.056 : en:Chapter 10 00:34:24.041 : en:Chapter 11 00:39:30.555 : en:Chapter 12 00:45:24.826 : en:Chapter 13 00:47:42.297 : en:Chapter 14 00:50:48.107 : en:Chapter 15 00:55:26.635 : en:Chapter 16 00:58:28.526 : en:Chapter 17 01:03:35.707 : en:Chapter 18 01:08:58.488 : en:Chapter 19 01:11:00.110 : en:Chapter 20 01:16:25.977 : en:Chapter 21 01:22:32.885 : en:Chapter 22 01:28:07.302 : en:Chapter 23 01:33:11.398 : en:Chapter 24 01:37:02.837 : en:Chapter 25 01:40:18.408 : en:Chapter 26 01:47:27.169 : en:Chapter 27 01:50:45.034 : en:Chapter 28 01:55:31.361 : en:Chapter 29 01:59:40.443 : en:Chapter 30 02:02:28.320 : en:Chapter 31 02:05:03.641 : en:Chapter 32
[+] Скриншоты
Релиз от: OldGamer ЦитатаКто-то писал:дорожка с переводом Яроцкого обозначена авторской по правилам оформления презентаций на трекере, на других ресурсах сети может быть другое обозначение

Всего файлов в раздаче: 1 
Шпион.Spy.2015.Unrated.BDRip-HEVC.1080p.mkv8.88 GB

Похожие раздачи по запросу - Шпион
2024-07-11 magnet Шпион на всю голову / Peter Five Eight (2023) WEB-DLRip-AVC от DoMiNo & селезень | D | Мосфильм-Мастер | Локализованная версия 1.46 GB ↑ 0 ↓ 0
2024-07-11 magnet Шпион на всю голову / Peter Five Eight (2023) WEB-DL 1080p от ELEKTRI4KA | D 4.07 GB ↑ 1 ↓ 3
2024-07-11 magnet Шпион на всю голову / Peter Five Eight (2023) WEB-DLRip от ELEKTRI4KA | D 1.46 GB ↑ 0 ↓ 0
2024-07-06 magnet Шпион / Spy (2015) WEB-DLRip-AVC от DoMiNo | D | Open Matte | Локализованная версия 2.19 GB ↑ 0 ↓ 0
2024-06-13 magnet Следствие ведет КГБ. Шпион на миллиард долларов (2024) WEBRip 512.44 MB ↑ 0 ↓ 0
2023-04-07 magnet Шпион [01-08 из 08] (2021-2022) WEB-DLRip-AVC от Files-х 4.92 GB ↑ 0 ↓ 0

Комментарии


Зарегистрируйтесь чтобы добавить комментарий
Торрент клиент
byTorrent - программа для загрузки торрент-файлов.

Скачать byTorrent.exe (1,5 МБ)

Скачать byTorrent.zip (0,6 МБ)

Поддержи torrent.by
российских рублей
(300 российских рублей это 4$)

Обратная связь rss

End game ©