↑↓torrent.by
Поиск
Логин:  Регистрация
Пароль:

Пацан против всех / Boy Kills World (2023) BDRip от New-Team | P | HDRezka Studio

download Скачать торрент-файл   magnet Магнитная ссылка Размер: 1.46 GB Добавлен: 2024-07-06 17:00
Пиры будут получены из сети DHT
Последний сидер был замечен 2024-07-08 21:57
Пацан против всех / Boy Kills World Год выпуска: 2023 Выпущено: Германия, ЮАР, США / Nthibah Pictures, Raimi Productions, Ventaro Film Жанр: боевик, комедия, фантастика Режиссер: Мориц Мор / Moritz Mohr В ролях: Билл Скарсгард, Джессика Рот, Мишель Докери, Бретт Гельман, Яян Рухьян, Куинн Коуплэнд, Эндрю Кодзи, Айзейя Мустафа, Шарлто Копли, Фамке Янссен О фильме: Будущее. Во время отбора жертв для ежегодно проводимого тв-шоу мать и сестру одного мальчика убивает глава правящей тиранической династии Хильда Ван Дер Кой, а сам он становится глухонемым. Парень сбегает в джунгли с одним желанием — отомстить. Здесь он встречает отшельника Шамана, который начинает обучать его боевым искусствам. Проходят годы, и теперь повзрослевший мститель готов действовать. Продолжительность: 01:50:58 Перевод: Профессиональный (многоголосый, закадровый) | HDRezka Studio Субтитры: Русские (forced, full (stirlooo | 18+)) Раздача от : Формат: AVI Качество: BDRip | Boy.Kills.World.2023.COMPLETE.BLURAY-UNTOUCHED Видео: 720x304 (2.35:1), 23.976 fps, XviD MPEG-4 ~ 1686 kbps avg, 0.321 bit/pixel, build 73 Аудио: 48 kHz, AC3 Dolby Digital, 2/0 (L,R) ch, ~ 192 kbps | RUS |
[+] MediaInfoОбщее Полное имя : D:TorrentsBoy.Kills.World.2023.BDRip_от New-TeamBoy.Kills.World.2023.BDRip_от New-Team.avi Формат : AVI Формат/Информация : Audio Video Interleave Размер файла : 1,46 Гбайт Продолжительность : 1 ч. 50 м. Общий поток : 1 887 Кбит/сек Программа кодирования : VirtualDubMod 1.5.10.2 (build 2540/release) Библиотека кодирования : VirtualDubMod build 2540/release Видео Идентификатор : 0 Формат : MPEG-4 Visual Профиль формата : Advanced Simple@L5 Настройки формата : BVOP1 / Custom Matrix Параметр BVOP формата : 1 Параметр QPel формата : Нет Параметр GMC формата : Без точки перехода Параметр матрицы формата : Выборочная Идентификатор кодека : XVID Идентификатор кодека/Подсказка : XviD Продолжительность : 1 ч. 50 м. Битрейт : 1 686 Кбит/сек Ширина : 720 пикселей Высота : 304 пикселя Соотношение сторон : 2,35:1 Частота кадров : 23,976 (24000/1001) кадра/сек Цветовое пространство : YUV Субдискретизация насыщенности : 4:2:0 Битовая глубина : 8 бит Тип развёртки : Прогрессивная Метод сжатия : С потерями Бит/(Пиксели*Кадры) : 0.321 Размер потока : 1,31 Гбайт (89%) Библиотека кодирования : XviD 73 Аудио Идентификатор : 1 Формат : AC-3 Формат/Информация : Audio Coding 3 Коммерческое название : Dolby Digital Идентификатор кодека : 2000 Продолжительность : 1 ч. 50 м. Вид битрейта : Постоянный Битрейт : 192 Кбит/сек Каналы : 2 канала Channel layout : L R Частота : 48,0 КГц Частота кадров : 31,250 кадров/сек (1536 SPF) Метод сжатия : С потерями Размер потока : 152 Мбайт (10%) Выравнивание : Разделение по промежуткам Продолжительность промежутка : 42 мс. (1,00 видеокадр) Время предзагрузки промежутка : 500 мс. Service kind : Complete Main

Всего файлов в раздаче: 3 
Boy.Kills.World.2023.BDRip_от New-Team.avi1.46 GB
Boy.Kills.World.2023.BDRip_от New-Team_forced_[rus].srt853.00 B
Boy.Kills.World.2023.BDRip_от New-Team_full_[rus].srt99.23 kB

Похожие раздачи по запросу - Пацан
2024-07-15 magnet Пацан против всех / Пробивний чувак / Boy Kills World (2024) UHD BDRemux 2160p | 4K | SDR | D, P | UKR 66.56 GB ↑ 0 ↓ 0
2024-07-15 magnet Пацан против всех / Пробивний чувак / Boy Kills World (2024) BDRip 1080p | D, P | UKR 13.80 GB ↑ 0 ↓ 2
2024-07-13 magnet Пацан против всех / Boy Kills World (2023) BDRip 1080p от Generalfilm | D 5.37 GB ↑ 0 ↓ 1
2024-07-13 magnet Пацан против всех / Boy Kills World (2023) BDRip-AVC от DoMiNo & селезень | D | Мосфильм-Мастер 1.74 GB ↑ 0 ↓ 0
2024-07-13 magnet Пацан против всех / Boy Kills World (2023) BDRemux 1080p | D, P, A 25.17 GB ↑ 0 ↓ 3
2024-07-13 magnet Пацан против всех / Boy Kills World (2023) BDRip 720p от DoMiNo & селезень | D, P, A 5.21 GB ↑ 0 ↓ 0
2024-07-13 magnet Пацан против всех / Boy Kills World (2023) BDRip от DoMiNo & селезень | D | Мосфильм-Мастер 1.46 GB ↑ 0 ↓ 2

Комментарии


Зарегистрируйтесь чтобы добавить комментарий
Торрент клиент
byTorrent - программа для загрузки торрент-файлов.

Скачать byTorrent.exe (1,5 МБ)

Скачать byTorrent.zip (0,6 МБ)

Поддержи torrent.by
российских рублей
(300 российских рублей это 4$)

Обратная связь rss

End game ©