↑↓torrent.by
Поиск
Логин:  Регистрация
Пароль:

Омен. Первое знамение / The First Omen (2024) WEB-DLRip 720p от DoMiNo & селезень | D, P | MovieDalen, HDrezka Studio

download Скачать торрент-файл   magnet Магнитная ссылка Размер: 4.15 GB Добавлен: 2024-07-06 17:00
Пиры будут получены из сети DHT
Последний сидер был замечен 2024-07-06 17:00
Информация о фильме Название: Омен. Первое знамение Оригинальное название: The First Omen Год выпуска: 2024 Жанр: Ужасы Режиссер: Аркаша Стивенсон В ролях: Нелл Тайгер Фри, Ральф Айнесон, Соня Брага, Тауфик Бархом, Мария Кабальеро, Чарльз Дэнс, Билл Найи, Nicole Sorace, Ishtar Currie-Wilson, Андреа Арканджели Описание: Молодая американка отправляется в Рим, чтобы посвятить себя служению церкви. Там она сталкивается с тьмой и заговором, цель которого принести в мир воплощение зла. Выпущено: США, Италия, Сербия, Канада / 20th Century Studios Продолжительность: 01:59:13 Перевод 1: Дублированный | MovieDalen Перевод 2: Профессиональный многоголосый | HDrezka Studio Субтитры: Русские (Forced, Full), Английские Файл Формат: Matroska Качество: WEB-DLRip 720p | Исх.The.First.Omen.2024.2160p.WEB-DL.DDP5.1.Atmos.H.265-FLUX Видео: 1280x692 at 24.000 fps, x264@L4.1, ~3696 kbps Аудио 1: AC3, 6 ch, ~448 kbps - | Русский | | MovieDalen Аудио 2: AC3, 2 ch, ~384 kbps - | Русский | | HDrezka Studio Аудио 3: AC3, 6 ch, ~448 kbps - | Английский | | Original Формат субтитров: softsub (SRT) ***Рип от: -=DoMiNo=- *** Дебандинг, зерно.
[+] M/Ix264 : frame I:1033 Avg QP:15.32 size: 79011 x264 : frame P:35111 Avg QP:16.84 size: 34162 x264 : frame B:135540 Avg QP:18.07 size: 14931 General Unique ID : 212501617204636646785338381958621350725 (0x9FDE52A1BE6058931A728718676ACB45) Complete name : L:The.First.Omen.2024.D.P.WEB-DLRip.720p.x264.seleZen.mkv Format : Matroska Format version : Version 4 File size : 4.15 GiB Duration : 1 h 59 min Overall bit rate : 4 978 kb/s Frame rate : 24.000 FPS Movie name : The.First.Omen.2024.D.P.WEB-DLRip.720p.x264.seleZen Encoded date : 2024-07-06 08:40:12 UTC Writing application : mkvmerge v85.0 ('Shame For You') 64-bit Writing library : libebml v1.4.5 + libmatroska v1.7.1 Cover : Yes Attachments : cover.jpg / small_cover.jpg Video ID : 1 Format : AVC Format/Info : Advanced Video Codec Format profile : High@L4.1 Format settings : CABAC / 5 Ref Frames Format settings, CABAC : Yes Format settings, Reference : 5 frames Codec ID : V_MPEG4/ISO/AVC Duration : 1 h 59 min Bit rate : 3 696 kb/s Width : 1 280 pixels Height : 692 pixels Display aspect ratio : 1.85:1 Frame rate mode : Constant Frame rate : 24.000 FPS Color space : YUV Chroma subsampling : 4:2:0 Bit depth : 8 bits Scan type : Progressive Bits/(Pixel*Frame) : 0.174 Stream size : 3.08 GiB (74%) Title : -=DoMiNo=- Writing library : x264 core 164 r3191 -DoMiNo Encoding settings : cabac=1 / ref=5 / deblock=1:-1:-1 / analyse=0x3:0x133 / me=umh / subme=10 / psy=1 / psy_rd=1.00:0.00 / mixed_ref=1 / me_range=32 / chroma_me=1 / trellis=2 / 8x8dct=1 / cqm=0 / deadzone=21,11 / fast_pskip=0 / chroma_qp_offset=-2 / threads=22 / lookahead_threads=5 / sliced_threads=0 / nr=0 / decimate=1 / interlaced=0 / bluray_compat=0 / constrained_intra=0 / bframes=12 / b_pyramid=2 / b_adapt=2 / b_bias=0 / direct=3 / weightb=1 / open_gop=0 / weightp=2 / keyint=240 / keyint_min=23 / scenecut=40 / intra_refresh=0 / rc_lookahead=60 / rc=crf / mbtree=0 / crf=19.0 / qcomp=0.60 / qpmin=0 / qpmax=69 / qpstep=4 / vbv_maxrate=50000 / vbv_bufsize=62500 / crf_max=0.0 / nal_hrd=none / filler=0 / ip_ratio=1.35 / pb_ratio=1.25 / aq=3:0.90 Language : English Default : Yes Forced : No Audio #1 ID : 2 Format : AC-3 Format/Info : Audio Coding 3 Commercial name : Dolby Digital Codec ID : A_AC3 Duration : 1 h 59 min Bit rate mode : Constant Bit rate : 448 kb/s Channel(s) : 6 channels Channel layout : L R C LFE Ls Rs Sampling rate : 48.0 kHz Frame rate : 31.250 FPS (1536 SPF) Compression mode : Lossy Stream size : 382 MiB (9%) Title : Dub - MovieDalen Language : Russian Service kind : Complete Main Default : Yes Forced : No Dialog Normalization : -27 dB compr : -0.28 dB cmixlev : -3.0 dB surmixlev : -3 dB dmixmod : Lo/Ro ltrtcmixlev : -3.0 dB ltrtsurmixlev : -3.0 dB lorocmixlev : -3.0 dB lorosurmixlev : -3.0 dB dialnorm_Average : -27 dB dialnorm_Minimum : -27 dB dialnorm_Maximum : -27 dB Audio #2 ID : 3 Format : AC-3 Format/Info : Audio Coding 3 Commercial name : Dolby Digital Codec ID : A_AC3 Duration : 1 h 59 min Bit rate mode : Constant Bit rate : 384 kb/s Channel(s) : 2 channels Channel layout : L R Sampling rate : 48.0 kHz Frame rate : 31.250 FPS (1536 SPF) Compression mode : Lossy Stream size : 327 MiB (8%) Title : MVO - HDrezka Studio Language : Russian Service kind : Complete Main Default : No Forced : No Dialog Normalization : -31 dB dialnorm_Average : -31 dB dialnorm_Minimum : -31 dB dialnorm_Maximum : -31 dB Audio #3 ID : 4 Format : AC-3 Format/Info : Audio Coding 3 Commercial name : Dolby Digital Codec ID : A_AC3 Duration : 1 h 59 min Bit rate mode : Constant Bit rate : 448 kb/s Channel(s) : 6 channels Channel layout : L R C LFE Ls Rs Sampling rate : 48.0 kHz Frame rate : 31.250 FPS (1536 SPF) Compression mode : Lossy Stream size : 382 MiB (9%) Language : English Service kind : Complete Main Default : No Forced : No Dialog Normalization : -31 dB cmixlev : -4.5 dB surmixlev : -6 dB dialnorm_Average : -31 dB dialnorm_Minimum : -31 dB dialnorm_Maximum : -31 dB Text #1 ID : 5 Format : UTF-8 Codec ID : S_TEXT/UTF8 Codec ID/Info : UTF-8 Plain Text Duration : 1 h 38 min Bit rate : 0 b/s Frame rate : 0.003 FPS Count of elements : 16 Stream size : 663 Bytes (0%) Title : Forced Language : Russian Default : No Forced : No Text #2 ID : 6 Format : UTF-8 Codec ID : S_TEXT/UTF8 Codec ID/Info : UTF-8 Plain Text Duration : 1 h 49 min Bit rate : 45 b/s Frame rate : 0.142 FPS Count of elements : 937 Stream size : 36.7 KiB (0%) Title : Full Language : Russian Default : No Forced : No Text #3 ID : 7 Format : UTF-8 Codec ID : S_TEXT/UTF8 Codec ID/Info : UTF-8 Plain Text Duration : 1 h 11 min Bit rate : 0 b/s Frame rate : 0.001 FPS Count of elements : 6 Stream size : 128 Bytes (0%) Title : Forced Language : English Default : No Forced : No Text #4 ID : 8 Format : UTF-8 Codec ID : S_TEXT/UTF8 Codec ID/Info : UTF-8 Plain Text Duration : 1 h 49 min Bit rate : 29 b/s Frame rate : 0.138 FPS Count of elements : 912 Stream size : 23.3 KiB (0%) Language : English Default : No Forced : No Text #5 ID : 9 Format : UTF-8 Codec ID : S_TEXT/UTF8 Codec ID/Info : UTF-8 Plain Text Duration : 1 h 54 min Bit rate : 50 b/s Frame rate : 0.239 FPS Count of elements : 1636 Stream size : 42.5 KiB (0%) Title : SDH Language : English Default : No Forced : No Menu 00:00:00.000 : en:Chapter 01 00:06:06.500 : en:Chapter 02 00:09:20.125 : en:Chapter 03 00:12:34.291 : en:Chapter 04 00:15:17.666 : en:Chapter 05 00:18:00.958 : en:Chapter 06 00:21:28.041 : en:Chapter 07 00:22:52.083 : en:Chapter 08 00:24:50.416 : en:Chapter 09 00:26:42.833 : en:Chapter 10 00:31:27.708 : en:Chapter 11 00:34:03.958 : en:Chapter 12 00:35:14.250 : en:Chapter 13 00:38:34.291 : en:Chapter 14 00:41:19.416 : en:Chapter 15 00:45:24.875 : en:Chapter 16 00:51:09.750 : en:Chapter 17 00:57:41.083 : en:Chapter 18 01:00:31.083 : en:Chapter 19 01:04:25.000 : en:Chapter 20 01:07:05.708 : en:Chapter 21 01:18:19.833 : en:Chapter 22 01:28:45.708 : en:Chapter 23 01:33:25.166 : en:Chapter 24 01:39:48.916 : en:Chapter 25 01:48:55.000 : en:Chapter 26 01:51:12.875 : en:Chapter 27
Релиз: Присоединяйся к: Кликай на баннеры.

Всего файлов в раздаче: 1 
The.First.Omen.2024.D.P.WEB-DLRip.720p.x264.seleZen.mkv4.15 GB

Похожие раздачи по запросу - Омен
2024-07-05 magnet Омен. Первое знамение / The First Omen (2024) WEB-DLRip 1080p | D, P | MovieDalen, HDrezka Studio 15.35 GB ↑ 0 ↓ 0
2024-06-22 magnet Омен. Непорочная / Immaculate (2024) HDRip от AR-Team | D 748.39 MB ↑ 0 ↓ 0
2024-06-22 magnet Омен. Непорочная / Immaculate (2024) BDRip от AR-Team | D 1.46 GB ↑ 0 ↓ 0
2024-06-17 magnet Омен. Непорочная / Immaculate (2024) BDRip 1080p от DoMiNo & селезень | D, L | Soundmasters 6.06 GB ↑ 0 ↓ 0
2024-06-16 magnet Омен. Непорочная / Immaculate (2024) BDRip-AVC от DoMiNo & селезень | D, L | Soundmasters 1.45 GB ↑ 0 ↓ 0
2024-06-15 magnet Омен. Непорочная / Immaculate (2024) BDRip 720p от DoMiNo & селезень | D, L | Soundmasters 3.87 GB ↑ 0 ↓ 0
2024-06-15 magnet Омен. Непорочная / Immaculate (2024) BDRip от New-Team | D | Soundmasters 1.46 GB ↑ 0 ↓ 0

Комментарии


Зарегистрируйтесь чтобы добавить комментарий
Торрент клиент
byTorrent - программа для загрузки торрент-файлов.

Скачать byTorrent.exe (1,5 МБ)

Скачать byTorrent.zip (0,6 МБ)

Поддержи torrent.by
российских рублей
(300 российских рублей это 4$)

Обратная связь rss

End game ©