↑↓torrent.by
Поиск
Логин:  Регистрация
Пароль:

Нежданчик / Babes (2024) WEB-DLRip-AVC | L | RGB

download Скачать торрент-файл   magnet Магнитная ссылка Размер: 1.62 GB Раздают: 1 Качают: 0 Добавлен: il68k 2024-07-07 01:24
Пиры будут получены из сети DHT
Последний сидер был замечен сегодня в 21:56
Информация о фильме Название: Нежданчик Оригинальное название: Babes Год выхода: 2024 Жанр: комедия Режиссер: Памела Адлон В ролях: Илана Глейзер, Мишель Бюто, Хасан Минхадж, Джон Кэрролл Линч, Стефан Джеймс, Оливер Платт, Елена Успенская, Кит Лукас, Кеннет Лукас, Джош Рабиновиц, Марио Полит О фильме: Иден — одинокая, немного легкомысленная девушка, обедает вместе со своей беременной замужней подругой Доун, когда у той неожиданно начинаются схватки. Иден помогает ей добраться до больницы и присутствует при рождении ее уже второго ребенка. А по пути домой неожиданно знакомится с симпатичным парнем, с которым решает переспать. Но эта внезапная связь на одну ночь имеет последствия: Иден беременеет. Более того, она решает оставить ребенка и обращается за помощью к опытной Доун, которая должна помочь ей справиться с незапланированной беременностью. Страна: США Студия: FilmNation Entertainment, Range Media Partners, Starrpix Продолжительность: 01:44:09 Перевод: Любительский (многоголосый закадровый) | RGB Файл Кодек: Н.264 Качество: WEB-DLRip-AVC Видео: MPEG-4 AVC, 1590 Kbps, 1024x554 (1.85:1), 23.976 fps, 0.117 bit/pixel, High@L4.1 Звук 1: 48 kHz, AC3 Dolby Digital, 2/0 (L, R) ch, ~192 kbps | RGB Звук 2: 48 kHz, AC3 Dolby Digital, 3/2 (L, C, R, l, r) + LFE ch, ~448 kbps | Английский Субтитры: английские (full, SDH), испанские Семпл
[+] Скриншоты
[+] MediaInfo raw : 1024x554p 1:1 @ 24000/1001 fps (cfr) x264 : using SAR=1/1 x264 : using cpu capabilities: MMX2 SSE2Fast SSSE3 SSE4.2 AVX FMA3 BMI2 AVX2 x264 : profile High, level 4.1, 4:2:0, 8-bit x264 : frame I:1459 Avg QP:15.31 size: 68059 x264 : frame P:33312 Avg QP:17.49 size: 19150 x264 : frame B:115071 Avg QP:19.76 size: 4387 x264 : consecutive B-frames: 1.5% 1.3% 5.3% 45.9% 14.9% 23.1% 3.7% 2.7% 0.6% 0.3% 0.1% 0.5% 0.1% x264 : mb I I16..4: 7.0% 75.1% 17.9% x264 : mb P I16..4: 0.9% 5.6% 0.8% P16..4: 40.1% 27.6% 15.6% 0.0% 0.0% skip: 9.5% x264 : mb B I16..4: 0.1% 0.2% 0.0% B16..8: 37.3% 9.6% 2.4% direct: 2.6% skip:47.7% L0:41.3% L1:48.1% BI:10.6% x264 : 8x8 transform intra:75.8% inter:58.3% x264 : direct mvs spatial:100.0% temporal:0.0% x264 : coded y, uvDC, uvAC intra: 84.4% 85.1% 72.5% inter: 13.4% 13.4% 7.9% x264 : i16 v, h, dc, p: 46% 13% 11% 29% x264 : i8 v, h, dc, ddl, ddr, vr, hd, vl, hu: 15% 10% 11% 8% 11% 12% 11% 11% 12% x264 : i4 v, h, dc, ddl, ddr, vr, hd, vl, hu: 16% 9% 5% 9% 14% 14% 12% 11% 11% x264 : i8c dc, h, v, p: 46% 21% 20% 13% x264 : Weighted P-Frames: Y:1.5% UV:0.7% x264 : ref P L0: 52.8% 8.7% 16.3% 5.5% 4.5% 3.0% 2.7% 1.4% 1.3% 1.0% 1.0% 0.9% 1.0% 0.0% 0.0% x264 : ref B L0: 74.5% 11.4% 5.5% 2.4% 1.8% 1.3% 1.0% 0.7% 0.5% 0.5% 0.3% 0.2% x264 : ref B L1: 93.4% 6.6% x264 : kb/s:1589.95 x264 : encoded 149842 frames, 12.11 fps, 1589.95 kb/s ====================================================================== General Unique ID: 218602295658443839861158516419424059309 (0xA475454D6259A341318C15643B8A7FAD) Complete name: D:\Nezhdanchik.2024.AMZN.WEB-DLRip.AVC.mkv Format: Matroska Format version: Version 4 File size: 1.62 GiB Duration: 1 h 44 min Overall bit rate: 2 224 kb/s Frame rate: 23.976 FPS Movie name: Babes (2024) WEB-DLRip-AVC _ vitolinform Encoded date: 2024-07-06 12:46:59 UTC Writing application: mkvmerge v85.0 ('Shame For You') 64-bit Writing library: libebml v1.4.5 + libmatroska v1.7.1 Attachments: poster.jpg / log.log Video ID: 1 Format: AVC Format/Info: Advanced Video Codec Format profile: High@L4.1 Format settings: CABAC / 13 Ref Frames Format settings, CABAC: Yes Format settings, Reference frames: 13 frames Codec ID: V_MPEG4/ISO/AVC Duration: 1 h 44 min Bit rate: 1 590 kb/s Width: 1 024 pixels Height: 554 pixels Display aspect ratio: 1.85:1 Frame rate mode: Constant Frame rate: 23.976 (24000/1001) FPS Color space: YUV Chroma subsampling: 4:2:0 Bit depth: 8 bits Scan type: Progressive Bits/(Pixel*Frame): 0.117 Stream size: 1.16 GiB (71%) Title: Нежданчик / Babes (2024) Writing library: x264 core 164 r3182 be4f020 Encoding settings: cabac=1 / ref=13 / deblock=1:-3:-3 / analyse=0x3:0x113 / me=umh / subme=10 / psy=1 / psy_rd=1.00:0.05 / mixed_ref=1 / me_range=32 / chroma_me=1 / trellis=2 / 8x8dct=1 / cqm=0 / deadzone=21, 11 / fast_pskip=0 / chroma_qp_offset=-3 / threads=12 / lookahead_threads=3 / sliced_threads=0 / nr=0 / decimate=0 / interlaced=0 / bluray_compat=0 / constrained_intra=0 / bframes=12 / b_pyramid=2 / b_adapt=2 / b_bias=0 / direct=3 / weightb=1 / open_gop=0 / weightp=2 / keyint=240 / keyint_min=24 / scenecut=40 / intra_refresh=0 / rc_lookahead=60 / rc=crf / mbtree=0 / crf=18.5 / qcomp=0.60 / qpmin=0 / qpmax=69 / qpstep=4 / vbv_maxrate=50000 / vbv_bufsize=62500 / crf_max=0.0 / nal_hrd=none / filler=0 / ip_ratio=1.40 / pb_ratio=1.30 / aq=1:1.00 Language: English Default: Yes Forced: No Color range: Limited Color primaries: BT.709 Transfer characteristics: BT.709 Matrix coefficients: BT.709 Audio #1 ID: 2 Format: AC-3 Format/Info: Audio Coding 3 Commercial name: Dolby Digital Codec ID: A_AC3 Duration: 1 h 39 min Bit rate mode: Constant Bit rate: 192 kb/s Channel(s): 2 channels Channel layout: L R Sampling rate: 48.0 kHz Frame rate: 31.250 FPS (1536 SPF) Compression mode: Lossy Stream size: 137 MiB (8%) Title: MVO | RGB Language: Russian Service kind: Complete Main Default: Yes Forced: No Audio #2 ID: 3 Format: AC-3 Format/Info: Audio Coding 3 Commercial name: Dolby Digital Codec ID: A_AC3 Duration: 1 h 44 min Bit rate mode: Constant Bit rate: 448 kb/s Channel(s): 6 channels Channel layout: L R C LFE Ls Rs Sampling rate: 48.0 kHz Frame rate: 31.250 FPS (1536 SPF) Compression mode: Lossy Stream size: 334 MiB (20%) Title: English Language: English Service kind: Complete Main Default: No Forced: No Text #1 ID: 4 Format: UTF-8 Codec ID: S_TEXT/UTF8 Codec ID/Info: UTF-8 Plain Text Duration: 1 h 38 min Bit rate: 84 b/s Frame rate: 0.305 FPS Count of elements: 1799 Stream size: 60.7 KiB (0%) Title: Full Language: English Default: No Forced: No Text #2 ID: 5 Format: UTF-8 Codec ID: S_TEXT/UTF8 Codec ID/Info: UTF-8 Plain Text Duration: 1 h 41 min Bit rate: 92 b/s Frame rate: 0.343 FPS Count of elements: 2084 Stream size: 68.5 KiB (0%) Title: SDH Language: English Default: No Forced: No Text #3 ID: 6 Format: UTF-8 Codec ID: S_TEXT/UTF8 Codec ID/Info: UTF-8 Plain Text Duration: 1 h 38 min Bit rate: 82 b/s Frame rate: 0.299 FPS Count of elements: 1763 Stream size: 59.6 KiB (0%) Title: Full Language: Spanish Default: No Forced: No Menu 00:00:00.000: en:Scene 01 01:44:04.000: en:End Credits
Rip by vitolinform

Всего файлов в раздаче: 1 
Nezhdanchik.2024.AMZN.WEB-DLRip.AVC.mkv1.62 GB

Похожие раздачи по запросу - Нежданчик
2024-07-03 magnet Нежданчик / Babes (2024) WEB-DLRip-AVC | L | RGB 1.50 GB ↑ 6 ↓ 0
2024-07-03 magnet Нежданчик / Babes (2024) WEB-DL 1080p | L | RGB 6.04 GB ↑ 0 ↓ 1

Комментарии


Зарегистрируйтесь чтобы добавить комментарий
Торрент клиент
byTorrent - программа для загрузки торрент-файлов.

Скачать byTorrent.exe (1,5 МБ)

Скачать byTorrent.zip (0,6 МБ)

Поддержи torrent.by
российских рублей
(300 российских рублей это 4$)

Обратная связь rss

End game ©