↑↓torrent.by
Поиск
Логин:  Регистрация
Пароль:

Летний лагерь / Summer Camp (2024) WEB-DLRip-AVC | L | RGB

download Скачать торрент-файл   magnet Магнитная ссылка Размер: 1.59 GB Раздают: 7 Качают: 3 Добавлен: il68k 2024-07-07 01:49
Пиры будут получены из сети DHT
Последний сидер был замечен сегодня в 22:56
Информация о фильме Название: Летний лагерь Оригинальное название: Summer Camp Год выхода: 2024 Жанр: комедия Режиссер: Кастиль Лэндон В ролях: Дайан Китон, Кэти Бейтс, Элфри Вудард, Юджин Леви, Деннис Хейсберт, Беверли Д’Анджело, Николь Ричи, Джош Пек, Бетси Содаро, Том Райт О фильме: Нора, Джинни и Мэри — три лучшие подруги детства, которые каждое лето проводили вместе в лагере с ночевкой. По прошествии многих лет, когда у них вновь появляется возможность собраться в летнем лагере, они решают ею воспользоваться. Страна: США Студия: Page Fifty-Four Pictures, Project Infinity, Taylor & Dodge Продолжительность: 01:35:33 Перевод: Любительский (многоголосый закадровый) | RGB Файл Формат: MKV Качество: WEB-DLRip-AVC Видео: AVC/H.264, 720x300, ~1995 Kbps, 23.976 fps Аудио: 48.0 kHz, AC3, 6 ch, ~384 kbps | RGB Субтитры: отсутствуют Семпл
[+] Скриншоты
[+] MediaInfo General Unique ID : 322368789198100373138401411409999980673 (0xF285F86DC9FE8490990C371824DE6881) Complete name : E:\RGB\Summer.Camp.2024.WEB.MVO-RGB.mkv Format : Matroska Format version : Version 4 File size : 1.59 GiB Duration : 1 h 35 min Overall bit rate : 2 381 kb/s Frame rate : 23.976 FPS Movie name : RGB Encoded date : 2024-06-25 21:05:11 UTC Writing application : mkvmerge v82.0 ('I'm The President') 64-bit Writing library : libebml v1.4.5 + libmatroska v1.7.1 Video ID : 1 Format : AVC Format/Info : Advanced Video Codec Format profile : High@L4.1 Format settings : CABAC / 10 Ref Frames Format settings, CABAC : Yes Format settings, Reference : 10 frames Codec ID : V_MPEG4/ISO/AVC Duration : 1 h 35 min Bit rate : 1 995 kb/s Width : 720 pixels Height : 300 pixels Display aspect ratio : 2.40:1 Frame rate mode : Constant Frame rate : 23.976 (24000/1001) FPS Color space : YUV Chroma subsampling : 4:2:0 Bit depth : 8 bits Scan type : Progressive Bits/(Pixel*Frame) : 0.385 Stream size : 1.33 GiB (84%) Title : RGB Language : English Default : Yes Forced : No Audio ID : 2 Format : AC-3 Format/Info : Audio Coding 3 Commercial name : Dolby Digital Codec ID : A_AC3 Duration : 1 h 35 min Bit rate mode : Constant Bit rate : 384 kb/s Channel(s) : 6 channels Channel layout : L R C LFE Ls Rs Sampling rate : 48.0 kHz Frame rate : 31.250 FPS (1536 SPF) Compression mode : Lossy Stream size : 262 MiB (16%) Title : MVO Language : Russian Service kind : Complete Main Default : Yes Forced : No Dialog Normalization : -27 dB compr : -0.28 dB cmixlev : -3.0 dB surmixlev : -3 dB mixlevel : 285 dB roomtyp : 3 ltrtcmixlev : -3.0 dB ltrtsurmixlev : -3.0 dB lorocmixlev : -3.0 dB lorosurmixlev : -3.0 dB dialnorm_Average : -27 dB dialnorm_Minimum : -27 dB dialnorm_Maximum : -27 dB
Релиз от: RGB

Всего файлов в раздаче: 1 
Summer.Camp.2024.WEB.MVO-RGB.mkv1.59 GB

Похожие раздачи по запросу - Летний
2024-07-07 magnet Летний лагерь / Summer Camp (2024) WEB-DL 1080p | L | RGB 4.90 GB ↑ 0 ↓ 1

Комментарии


Зарегистрируйтесь чтобы добавить комментарий
Торрент клиент
byTorrent - программа для загрузки торрент-файлов.

Скачать byTorrent.exe (1,5 МБ)

Скачать byTorrent.zip (0,6 МБ)

Поддержи torrent.by
российских рублей
(300 российских рублей это 4$)

Обратная связь rss

End game ©