↑↓torrent.by
Поиск
Логин:  Регистрация
Пароль:

Мыслить как преступник / Criminal Minds [17x01-06 из 10] (2024) WEB-DL 1080p от Jaskier | P

download Скачать торрент-файл   magnet Магнитная ссылка Размер: 12.84 GB Раздают: 0 Качают: 1 Добавлен: 2024-07-07 05:00
Пиры будут получены из сети DHT
Последний сидер был замечен 2024-07-07 18:18
Информация о фильме Название: Мыслить как преступник Оригинальное название: Criminal Minds Год выхода: 2024 Жанр: триллер, драма, криминал, детектив Режиссер: Гленн Кершоу, Феликс Энрикес Алькала, Роб Бэйли В ролях: Кирстен Вангснесс, Мэттью Грей Гублер, А.Дж. Кук, Джо Мантенья, Томас Гибсон, Шемар Мур, Пэйджет Брюстер, Аиша Тайлер, Адам Родригес, Дэниэл Хенни О фильме: В Сиэтле за короткое время пропали без вести четыре молодые девушки. Возникает версия, что в городе появился серийный маньяк-убийца. За расследование этого криминального случая берется спецподразделение ФБР, специализирующееся на поведенческом анализе действий преступников. Во главе этого подразделения стоит Джейсон Гидеон, который со своими напарниками пытается вычислить преступника, создавая его психологический портрет. Джейсон - не частый гость криминалистических лабораторий ФБР. Он и его команда выезжают на места преступлений, опрашивают свидетелей, анализируют и изучают психологическую сторону жизни преступника. Страна: США Студия: Touchstone Television, Paramount Network Television, The Mark Gordon Company Продолжительность: ~00:50:00 Перевод: Профессиональный (многоголосый закадровый) Jaskier Файл Кодек: MKV Качество: WEB-DL 1080p Видео: AVC, 1918x816 (2.35:1), 23.976 fps, ~5238 kbps Звук: Аудио 1: Русский, AC-3, 48 kHz, 6 ch, 384 kbps | Jaskier Аудио 2: Английский, E-AC-3 JOC, 48 kHz, 6 ch, 768 kbps Субтитры: Английские (Full, SDH) Семпл
[+] MediaInfo General Unique ID : 212507628292937324770829123273238028715 (0x9FDF7B00583702DAA6CC19F286A4A1AB) Complete name : E:TorrentCriminal Minds S17 1080p AMZN WEB-DL DDP5 1 Atmos H 264-JaskierCriminal Minds S17E01 Gold Star REPACK 1080p AMZN WEB-DL DDP5 1 Atmos H 264-Jaskier.mkv Format : Matroska Format version : Version 4 File size : 2.38 GiB Duration : 52 min 17 s Overall bit rate : 6 520 kb/s Frame rate : 23.976 FPS Encoded date : 2024-06-09 17:31:48 UTC Writing application : mkvmerge v6.6.0 ('The Edge Of The In Between') built on Dec 1 2013 17:55:00 Writing library : libebml v1.3.0 + libmatroska v1.4.1 Video ID : 1 Format : AVC Format/Info : Advanced Video Codec Format profile : High@L4 Format settings : CABAC / 4 Ref Frames Format settings, CABAC : Yes Format settings, Reference frames : 4 frames Codec ID : V_MPEG4/ISO/AVC Duration : 52 min 17 s Bit rate mode : Constant Bit rate : 5 238 kb/s Nominal bit rate : 10 000 kb/s Width : 1 920 pixels Height : 816 pixels Display aspect ratio : 2.35:1 Frame rate mode : Constant Frame rate : 23.976 (24000/1001) FPS Color space : YUV Chroma subsampling : 4:2:0 Bit depth : 8 bits Scan type : Progressive Bits/(Pixel*Frame) : 0.139 Stream size : 1.91 GiB (80%) Language : English Default : Yes Forced : No Color range : Limited Color primaries : BT.709 Transfer characteristics : BT.709 Matrix coefficients : BT.709 Audio #1 ID : 2 Format : AC-3 Format/Info : Audio Coding 3 Commercial name : Dolby Digital Codec ID : A_AC3 Duration : 52 min 17 s Bit rate mode : Constant Bit rate : 384 kb/s Channel(s) : 6 channels Channel layout : L R C LFE Ls Rs Sampling rate : 48.0 kHz Frame rate : 31.250 FPS (1536 SPF) Compression mode : Lossy Stream size : 144 MiB (6%) Title : Jaskier Language : Russian Service kind : Complete Main Default : Yes Forced : No Dialog Normalization : -31 dB cmixlev : -4.5 dB surmixlev : -6 dB dialnorm_Average : -31 dB dialnorm_Minimum : -31 dB dialnorm_Maximum : -31 dB Audio #2 ID : 3 Format : E-AC-3 JOC Format/Info : Enhanced AC-3 with Joint Object Coding Commercial name : Dolby Digital Plus with Dolby Atmos Codec ID : A_EAC3 Duration : 52 min 17 s Bit rate mode : Constant Bit rate : 768 kb/s Channel(s) : 6 channels Channel layout : L R C LFE Ls Rs Sampling rate : 48.0 kHz Frame rate : 31.250 FPS (1536 SPF) Compression mode : Lossy Delay relative to video : 20 ms Stream size : 287 MiB (12%) Title : Original Language : English Service kind : Complete Main Default : No Forced : No Complexity index : 16 Number of dynamic objects : 15 Bed channel count : 1 channel Bed channel configuration : LFE Dialog Normalization : -27 dB compr : -0.28 dB dmixmod : Lo/Ro ltrtcmixlev : -3.0 dB ltrtsurmixlev : -3.0 dB lorocmixlev : -3.0 dB lorosurmixlev : -3.0 dB dialnorm_Average : -27 dB dialnorm_Minimum : -27 dB dialnorm_Maximum : -27 dB Text #1 ID : 4 Format : UTF-8 Codec ID : S_TEXT/UTF8 Codec ID/Info : UTF-8 Plain Text Language : English Default : No Forced : No Text #2 ID : 5 Format : UTF-8 Codec ID : S_TEXT/UTF8 Codec ID/Info : UTF-8 Plain Text Title : SDH Language : English Default : No Forced : No
[+] Скриншоты
Релиз от: Jaskier

Всего файлов в раздаче: 6 
Criminal Minds S17E01 Gold Star REPACK 1080p AMZN WEB-DL DDP5 1 Atmos H 264-Jaskier.mkv2.38 GB
Criminal Minds S17E02 Contagion REPACK 1080p AMZN WEB-DL DDP5 1 Atmos H 264-Jaskier.mkv2.15 GB
Criminal Minds S17E03 Homesick 1080p AMZN WEB-DL DDP5 1 Atmos H 264-Jaskier.mkv2.07 GB
Criminal Minds S17E04 Kingdom of the Blind 1080p AMZN WEB-DL DDP5 1 Atmos H 264-Jaskier.mkv2.00 GB
Criminal Minds S17E05 Conspiracy vs Theory 1080p AMZN WEB-DL DDP5 1 .H 264-Jaskier.mkv2.02 GB
Criminal Minds S17E06 Message in a Bottle 1080p AMZN WEB-DL DDP5 1 H 264-Jaskier.mkv2.22 GB

Похожие раздачи по запросу - Мыслить
Вчера magnet Мыслить как преступник / Criminal Minds [17x01-08 из 10] (2024) WEB-DL 1080p от Jaskier | P 17.99 GB ↑ 0 ↓ 1
2024-07-14 magnet Мыслить как преступник / Criminal Minds [17x01-07 из 10] (2024) WEB-DL 1080p от Jaskier | P 15.28 GB ↑ 0 ↓ 0
2024-06-30 magnet Мыслить как преступник / Criminal Minds [17x01-05 из 10] (2024) WEB-DL 1080p от Jaskier | P 10.62 GB ↑ 0 ↓ 0

Комментарии


Зарегистрируйтесь чтобы добавить комментарий
Торрент клиент
byTorrent - программа для загрузки торрент-файлов.

Скачать byTorrent.exe (1,5 МБ)

Скачать byTorrent.zip (0,6 МБ)

Поддержи torrent.by
российских рублей
(300 российских рублей это 4$)

Обратная связь rss

End game ©