↑↓torrent.by
Поиск
Логин:  Регистрация
Пароль:

Слай Сталлоне / Sly (2023) WEB-DLRip-AVC | КПК | P | HDrezka Studio

download Скачать торрент-файл   magnet Магнитная ссылка Размер: 500.43 MB Добавлен: 2024-07-07 05:00
Пиры будут получены из сети DHT
Последний сидер был замечен 2024-07-08 11:08
Информация о фильме Название: Слай Сталлоне Оригинальное название: Sly Год выхода: 2023 Жанр: документальный, биография Режиссер: Сильвестр Сталлоне, Арнольд Шварценеггер, Квентин Тарантино, Дженнифер Флавин, Джон Херцфелд, Уэсли Моррис, Фрэнк Сталлоне, Сэйдж Сталлоне, Скарлет Роуз Сталлоне, Систин Роуз СталлонеТом Зимни В ролях: О фильме: Сильвестр Сталлоне рассказывает, как кино помогло ему справиться с трудностями в детстве — и как он превратился из никому не известного паренька в легенду Голливуда Страна: США Студия: Netflix Продолжительность: 01:36:22 Перевод: Профессиональный (многоголосый, закадровый) | HDrezka Studio Файл Формат: MPEG-4 Base Media Качество: WEB-DLRip 360p (исх. WEB-DL 1080p) Видео: AVC, 640x320 (2.000), at 23.976 fps, 652 kbps Аудио: AAC LC SBR (HE-AAC), 48.0 kHz, 2 ch, 72 kbps Субтитры: Russian (Forced, Full), English (SDH)
[+] MediaInfoGeneral Complete name : Sly.(2023).HDrS.WEB-DLRip.mp4 Format : MPEG-4 Format profile : Base Media Codec ID : isom (isom) File size : 500 MiB Duration : 1 h 36 min Overall bit rate mode : Variable Overall bit rate : 726 kb/s Encoded date : UTC 2024-07-05 18:46:17 Tagged date : UTC 2024-07-05 18:46:17 Video ID : 1 Format : AVC Format/Info : Advanced Video Codec Format profile : High@L3.2 Format settings : CABAC / 13 Ref Frames Format settings, CABAC : Yes Format settings, RefFrames : 13 frames Codec ID : avc1 Codec ID/Info : Advanced Video Coding Duration : 1 h 36 min Bit rate : 652 kb/s Maximum bit rate : 2 947 kb/s Width : 640 pixels Height : 320 pixels Display aspect ratio : 2.000 Frame rate mode : Constant Frame rate : 23.976 (24000/1001) FPS Color space : YUV Chroma subsampling : 4:2:0 Bit depth : 8 bits Scan type : Progressive Bits/(Pixel*Frame) : 0.133 Stream size : 449 MiB (90%) Title : Sly Writing library : x264 core 148 r2721 72d53ab Encoding settings : cabac=1 / ref=13 / deblock=1:0:0 / analyse=0x3:0x113 / me=umh / subme=10 / psy=1 / psy_rd=1.00:0.00 / mixed_ref=1 / me_range=32 / chroma_me=1 / trellis=2 / 8x8dct=1 / cqm=0 / deadzone=21,11 / fast_pskip=0 / chroma_qp_offset=-2 / threads=6 / lookahead_threads=1 / sliced_threads=0 / nr=0 / decimate=1 / interlaced=0 / bluray_compat=0 / constrained_intra=0 / bframes=15 / b_pyramid=2 / b_adapt=2 / b_bias=0 / direct=3 / weightb=1 / open_gop=0 / weightp=2 / keyint=240 / keyint_min=23 / scenecut=40 / intra_refresh=0 / rc=2pass / mbtree=0 / bitrate=652 / ratetol=1.0 / qcomp=0.65 / qpmin=0 / qpmax=69 / qpstep=4 / cplxblur=20.0 / qblur=0.5 / ip_ratio=1.15 / pb_ratio=1.33 / aq=1:1.00 Language : English Encoded date : UTC 2024-01-04 08:00:17 Tagged date : UTC 2024-07-05 18:46:49 Codec configuration box : avcC Audio ID : 2 Format : AAC LC SBR Format/Info : Advanced Audio Codec Low Complexity with Spectral Band Replication Commercial name : HE-AAC Format settings : Explicit Codec ID : mp4a-40-2 Duration : 1 h 36 min Bit rate mode : Variable Bit rate : 72.0 kb/s Maximum bit rate : 230 kb/s Channel(s) : 2 channels Channel layout : L R Sampling rate : 48.0 kHz Frame rate : 23.438 FPS (2048 SPF) Compression mode : Lossy Stream size : 49.4 MiB (10%) Title : MVO - HDrezka Studio Language : Russian Encoded date : UTC 2024-07-05 18:46:44 Tagged date : UTC 2024-07-05 18:46:49 Text #1 ID : 3 Format : Timed Text Codec ID : tx3g Duration : 1 h 24 min Bit rate mode : Variable Bit rate : 1 b/s Stream size : 625 Bytes (0%) Title : Forced Language : Russian Forced : No Encoded date : UTC 2024-07-05 18:46:47 Tagged date : UTC 2024-07-05 18:46:49 Text #2 ID : 4 Format : Timed Text Codec ID : tx3g Duration : 1 h 35 min Bit rate mode : Variable Bit rate : 157 b/s Stream size : 110 KiB (0%) Title : Full Language : Russian Forced : No Encoded date : UTC 2024-07-05 18:46:47 Tagged date : UTC 2024-07-05 18:46:49 Text #3 ID : 5 Format : Timed Text Codec ID : tx3g Duration : 1 h 35 min Bit rate mode : Variable Bit rate : 110 b/s Stream size : 76.7 KiB (0%) Title : SDH Language : English Forced : No Encoded date : UTC 2024-01-04 08:00:39 Tagged date : UTC 2024-07-05 18:46:49
[+] Скриншоты

Всего файлов в раздаче: 1 
Sly.(2023).HDrS.WEB-DLRip.mp4500.43 MB

Похожие раздачи по запросу - Слай
2024-06-26 magnet Слай Сталлоне / Sly (2023) WEB-DL 1080p от New-Team | P 5.77 GB ↑ 0 ↓ 0

Комментарии


Зарегистрируйтесь чтобы добавить комментарий
Торрент клиент
byTorrent - программа для загрузки торрент-файлов.

Скачать byTorrent.exe (1,5 МБ)

Скачать byTorrent.zip (0,6 МБ)

Поддержи torrent.by
российских рублей
(300 российских рублей это 4$)

Обратная связь rss

End game ©