↑↓torrent.by
Поиск
Логин:  Регистрация
Пароль:

Пацан против всех / Boy Kills World (2023) BDRip от DoMiNo & селезень | A | Яроцкий

download Скачать торрент-файл   magnet Магнитная ссылка Размер: 1.46 GB Добавлен: 2024-07-07 05:00
Пиры будут получены из сети DHT
Последний сидер был замечен 2024-07-07 09:50
Информация о фильме Название: Пацан против всех Оригинальное название: Boy Kills World Год выпуска: 2023 Жанр: боевик, комедия, фантастика Режиссер: Мориц Мор / Moritz Mohr В ролях: Билл Скарсгард, Джессика Рот, Мишель Докери, Бретт Гельман, Яян Рухьян, Куинн Коуплэнд, Эндрю Кодзи, Айзейя Мустафа, Шарлто Копли, Фамке Янссен О фильме: Будущее. Во время отбора жертв для ежегодно проводимого тв-шоу мать и сестру одного мальчика убивает глава правящей тиранической династии Хильда Ван Дер Кой, а сам он становится глухонемым. Парень сбегает в джунгли с одним желанием — отомстить. Здесь он встречает отшельника Шамана, который начинает обучать его боевым искусствам. Проходят годы, и теперь повзрослевший мститель готов действовать. Выпущено: Германия, ЮАР, США / Nthibah Pictures, Raimi Productions, Ventaro Film Продолжительность: 01:50:42 Перевод: Авторский (одноголосый, закадровый) | М. Яроцкий 18+ Субтитры: Русские (Forced - хардсаб) Файл Формат: AVI Качество: BDRip Исходник: Boy.Kills.World.2024.1080p.Blu-ray.Remux.AVC.TrueHD.Atmos.7.1-ProTem Видео: 720x304 at 23.976 fps, XviD 69, ~1430 kbps Аудио: AC3, 6 ch, ~448 kbps - | Русский | Формат субтитров: хардсаб ***Рип от: -=DoMiNo=-
[+] M/IGeneral Complete name : U:Boy.Kills.World.2023.BDRip.seleZen.avi Format : AVI Format/Info : Audio Video Interleave Format settings : BitmapInfoHeader / WaveFormatEx File size : 1.46 GiB Duration : 1 h 50 min Overall bit rate : 1 887 kb/s Frame rate : 23.976 FPS Movie name : Boy.Kills.World.2023.BDRip.seleZen Writing application : VirtualDubModRus 1.5.10.2 (build 2542/release) Writing library : VirtualDubMod build 2542/release Copyright : -=DoMiNo=- Video ID : 0 Format : MPEG-4 Visual Format profile : Advanced Simple@L5 Format settings : BVOP1 / Custom Matrix Format settings, BVOP : 1 Format settings, QPel : No Format settings, GMC : No warppoints Format settings, Matrix : Custom Codec ID : XVID Codec ID/Hint : XviD Duration : 1 h 50 min Bit rate : 1 430 kb/s Width : 720 pixels Height : 304 pixels Display aspect ratio : 2.39:1 Frame rate : 23.976 (24000/1001) FPS Color space : YUV Chroma subsampling : 4:2:0 Bit depth : 8 bits Scan type : Progressive Compression mode : Lossy Bits/(Pixel*Frame) : 0.272 Stream size : 1.11 GiB (76%) Writing library : XviD 69 Audio ID : 1 Format : AC-3 Format/Info : Audio Coding 3 Commercial name : Dolby Digital Codec ID : 2000 Duration : 1 h 50 min Bit rate mode : Constant Bit rate : 448 kb/s Channel(s) : 6 channels Channel layout : L R C LFE Ls Rs Sampling rate : 48.0 kHz Frame rate : 31.250 FPS (1536 SPF) Compression mode : Lossy Stream size : 355 MiB (24%) Alignment : Split across interleaves Interleave, duration : 42 ms (1.00 video frame) Interleave, preload duratio : 500 ms Service kind : Complete Main Dialog Normalization : -31 dB cmixlev : -4.5 dB surmixlev : -6 dB dialnorm_Average : -31 dB dialnorm_Minimum : -31 dB dialnorm_Maximum : -31 dB
Релиз: Присоединяйся к: Кликай на баннеры.

Всего файлов в раздаче: 1 
Boy.Kills.World.2023.BDRip.seleZen.avi1.46 GB

Похожие раздачи по запросу - Пацан
2024-07-15 magnet Пацан против всех / Пробивний чувак / Boy Kills World (2024) UHD BDRemux 2160p | 4K | SDR | D, P | UKR 66.56 GB ↑ 0 ↓ 1
2024-07-15 magnet Пацан против всех / Пробивний чувак / Boy Kills World (2024) BDRip 1080p | D, P | UKR 13.80 GB ↑ 0 ↓ 1
2024-07-13 magnet Пацан против всех / Boy Kills World (2023) BDRip 1080p от Generalfilm | D 5.37 GB ↑ 0 ↓ 1
2024-07-13 magnet Пацан против всех / Boy Kills World (2023) BDRip-AVC от DoMiNo & селезень | D | Мосфильм-Мастер 1.74 GB ↑ 0 ↓ 0
2024-07-13 magnet Пацан против всех / Boy Kills World (2023) BDRemux 1080p | D, P, A 25.17 GB ↑ 0 ↓ 2
2024-07-13 magnet Пацан против всех / Boy Kills World (2023) BDRip 720p от DoMiNo & селезень | D, P, A 5.21 GB ↑ 0 ↓ 2
2024-07-13 magnet Пацан против всех / Boy Kills World (2023) BDRip от DoMiNo & селезень | D | Мосфильм-Мастер 1.46 GB ↑ 0 ↓ 0

Комментарии


Зарегистрируйтесь чтобы добавить комментарий
Торрент клиент
byTorrent - программа для загрузки торрент-файлов.

Скачать byTorrent.exe (1,5 МБ)

Скачать byTorrent.zip (0,6 МБ)

Поддержи torrent.by
российских рублей
(300 российских рублей это 4$)

Обратная связь rss

End game ©