↑↓torrent.by
Поиск
Логин:  Регистрация
Пароль:

Пятый элемент / The Fifth Element (1997) UHD BDRemux 2160p | 4K | HDR10 | Dolby Vision Profile 7 | D, P, P2, A | GBR Transfer

download Скачать торрент-файл   magnet Магнитная ссылка Размер: 93.79 GB Добавлен: 2024-07-07 05:00
Пиры будут получены из сети DHT
Последний сидер был замечен вчера в 19:35
Информация о фильме Название: Пятый элемент Оригинальное название: The Fifth Element Год выхода: 1997 Жанр: фантастика, боевик, комедия, мелодрама Режиссер: Люк Бессон В ролях: Брюс Уиллис, Милла Йовович, Гари Олдман, Иэн Холм, Крис Такер, Люк Перри, Брайон Джеймс, Том ’Тайни’ Листер мл., Ли Эванс, Чарли Крид-Майлз О фильме: Каждые пять тысяч лет открываются двери между измерениями и темные силы стремятся нарушить существующую гармонию. Каждые пять тысяч лет Вселенной нужен герой, способный противостоять этому злу. XXIII век. Нью-йоркский таксист Корбен Даллас должен решить глобальную задачу - спасение всего рода человеческого. Зло в виде раскаленной массы, наделенной интеллектом, надвигается на Землю. Победить его можно, только лишь собрав воедино четыре элемента (они же стихии - земля, вода, воздух и огонь) и добавив к ним загадочный пятый элемент. Страна: Франция, Великобритания Студия: Columbia Pictures, Gaumont, Pinewood Studios, Studio Canal Продолжительность: 02:06:22 Перевод: Дублированный, профессиональный (многоголосый, двухголосый закадровый), авторский (одноголосый, закадровый) Язык озвучки: Русский, украинский, английский Субтитры: Русские (full x2), английские (full, SDH) Релиз от: NNMClub (batonchik) Качество: UHD BDRemux 2160p (HDR10, Dolby Vision P7) Видео: HEVC/H.265, 3840x2160, (16:9), ~79.0 Mbps, 24.000 fps Аудио 01: DTS-HD MA, 6 ch, 4570 Kbps - Русский (DUB, BD RUS / "Амальгама") Аудио 02: AC3, 6 ch, 448 Kbps - Русский (DUB, "HTB-Профит") Аудио 03: DTS-HD MA, 8 ch, 5665 Kbps - Русский (DVO, "П.Гланц, И.Королёва") Аудио 04: AC3, 6 ch, 448 Kbps - Русский (MVO, TK "СТС") Аудио 05: AC3, 2 ch, 192 Kbps - Украинский (MVO, ТК "1+1") Аудио 06: AC3, 2 ch, 192 Kbps - Украинский (MVO, ТК "СТБ") Аудио 07: DTS-HD MA, 8 ch, 5744 Kbps - Русский (AVO, А. Гаврилов) Аудио 08: DTS-HD MA, 8 ch, 5770 Kbps - Русский (AVO, Ю. Живов) Аудио 09: TrueHD + Atmos, 8 ch, 3610 Kbps - Английский (Оригинал) Аудио 10: AC3, 6 ch, 640 Kbps - Английский (Оригинал)
[+] MediaInfo:General Unique ID : 236132188051841437972481523709408981404 (0xB1A567B9E4F0EC5E055B1CDEEA10319C) Complete name : The Fifth Element.1997.GBR.HDR.UHD.BDRemux.2160p.NNMClub.mkv Format : Matroska Format version : Version 4 File size : 93.8 GiB Duration : 2 h 6 min Overall bit rate mode : Variable Overall bit rate : 106 Mb/s Frame rate : 24.000 FPS Encoded date : 2024-03-19 17:41:37 UTC Writing application : mkvmerge v51.0.0 ('I Wish') 64-bit Writing library : libebml v1.4.0 + libmatroska v1.6.2 Video ID : 1 Format : HEVC Format/Info : High Efficiency Video Coding Format profile : Main 10@L5.1@High HDR format : Dolby Vision, Version 1.0, Profile 7.6, dvhe.07.06, BL+EL+RPU, Blu-ray compatible / SMPTE ST 2086, Version HDR10, HDR10 compatible Codec ID : V_MPEGH/ISO/HEVC Duration : 2 h 6 min Bit rate : 79.0 Mb/s Width : 3 840 pixels Height : 2 160 pixels Display aspect ratio : 16:9 Frame rate mode : Constant Frame rate : 24.000 FPS Color space : YUV Chroma subsampling : 4:2:0 (Type 2) Bit depth : 10 bits Bits/(Pixel*Frame) : 0.397 Stream size : 69.7 GiB (74%) Title : The Fifth Element.1997.GBR.HDR.UHD.BDRemux.2160p.NNMClub Language : English Default : Yes Forced : No Color range : Limited Color primaries : BT.2020 Transfer characteristics : PQ Matrix coefficients : BT.2020 non-constant Mastering display color primaries : Display P3 Mastering display luminance : min: 0.0001 cd/m2, max: 1000 cd/m2 SEI_rbsp_stop_one_bit : Missing Audio #1 ID : 2 Format : DTS XLL Format/Info : Digital Theater Systems Commercial name : DTS-HD Master Audio Codec ID : A_DTS Duration : 2 h 5 min Bit rate mode : Variable Bit rate : 4 570 kb/s Channel(s) : 6 channels Channel layout : C L R Ls Rs LFE Sampling rate : 48.0 kHz Frame rate : 93.750 FPS (512 SPF) Bit depth : 24 bits Compression mode : Lossless Stream size : 4.01 GiB (4%) Title : DUB, BD RUS / "Амальгама" Language : Russian Default : Yes Forced : No Audio #2 ID : 3 Format : AC-3 Format/Info : Audio Coding 3 Commercial name : Dolby Digital Codec ID : A_AC3 Duration : 2 h 5 min Bit rate mode : Constant Bit rate : 448 kb/s Channel(s) : 6 channels Channel layout : L R C LFE Ls Rs Sampling rate : 48.0 kHz Frame rate : 31.250 FPS (1536 SPF) Compression mode : Lossy Stream size : 403 MiB (0%) Title : DUB, "HTB-Профит" Language : Russian Service kind : Complete Main Default : No Forced : No Audio #3 ID : 4 Format : DTS XLL Format/Info : Digital Theater Systems Commercial name : DTS-HD Master Audio Codec ID : A_DTS Duration : 2 h 5 min Bit rate mode : Variable Bit rate : 5 665 kb/s Channel(s) : 8 channels Channel layout : C L R LFE Lb Rb Lss Rss Sampling rate : 48.0 kHz Frame rate : 93.750 FPS (512 SPF) Bit depth : 24 bits Compression mode : Lossless Stream size : 4.97 GiB (5%) Title : DVO, "П.Гланц, И.Королёва" Language : Russian Default : No Forced : No Audio #4 ID : 5 Format : AC-3 Format/Info : Audio Coding 3 Commercial name : Dolby Digital Codec ID : A_AC3 Duration : 2 h 5 min Bit rate mode : Constant Bit rate : 448 kb/s Channel(s) : 6 channels Channel layout : L R C LFE Ls Rs Sampling rate : 48.0 kHz Frame rate : 31.250 FPS (1536 SPF) Compression mode : Lossy Stream size : 403 MiB (0%) Title : MVO, TK "СТС" Language : Russian Service kind : Complete Main Default : No Forced : No Audio #5 ID : 6 Format : AC-3 Format/Info : Audio Coding 3 Commercial name : Dolby Digital Codec ID : A_AC3 Duration : 2 h 5 min Bit rate mode : Constant Bit rate : 192 kb/s Channel(s) : 2 channels Channel layout : L R Sampling rate : 48.0 kHz Frame rate : 31.250 FPS (1536 SPF) Compression mode : Lossy Stream size : 173 MiB (0%) Title : MVO, ТК "1+1" Language : Ukrainian Service kind : Complete Main Default : No Forced : No Audio #6 ID : 7 Format : AC-3 Format/Info : Audio Coding 3 Commercial name : Dolby Digital Codec ID : A_AC3 Duration : 2 h 5 min Bit rate mode : Constant Bit rate : 192 kb/s Channel(s) : 2 channels Channel layout : L R Sampling rate : 48.0 kHz Frame rate : 31.250 FPS (1536 SPF) Compression mode : Lossy Stream size : 173 MiB (0%) Title : MVO, ТК "СТБ" Language : Ukrainian Service kind : Complete Main Default : No Forced : No Audio #7 ID : 8 Format : DTS XLL Format/Info : Digital Theater Systems Commercial name : DTS-HD Master Audio Codec ID : A_DTS Duration : 2 h 5 min Bit rate mode : Variable Bit rate : 5 744 kb/s Channel(s) : 8 channels Channel layout : C L R LFE Lb Rb Lss Rss Sampling rate : 48.0 kHz Frame rate : 93.750 FPS (512 SPF) Bit depth : 24 bits Compression mode : Lossless Stream size : 5.04 GiB (5%) Title : AVO, А. Гаврилов Language : Russian Default : No Forced : No Audio #8 ID : 9 Format : DTS XLL Format/Info : Digital Theater Systems Commercial name : DTS-HD Master Audio Codec ID : A_DTS Duration : 2 h 5 min Bit rate mode : Variable Bit rate : 5 770 kb/s Channel(s) : 8 channels Channel layout : C L R LFE Lb Rb Lss Rss Sampling rate : 48.0 kHz Frame rate : 93.750 FPS (512 SPF) Bit depth : 24 bits Compression mode : Lossless Stream size : 5.07 GiB (5%) Title : AVO, Ю. Живов Language : Russian Default : No Forced : No Audio #9 ID : 10 Format : MLP FBA 16-ch Format/Info : Meridian Lossless Packing FBA with 16-channel presentation Commercial name : Dolby TrueHD with Dolby Atmos Codec ID : A_TRUEHD Duration : 2 h 6 min Bit rate mode : Variable Bit rate : 3 610 kb/s Maximum bit rate : 6 342 kb/s Channel(s) : 8 channels Channel layout : L R C LFE Ls Rs Lb Rb Sampling rate : 48.0 kHz Frame rate : 1 200.000 FPS (40 SPF) Compression mode : Lossless Stream size : 3.19 GiB (3%) Title : Оригинал Language : English Default : No Forced : No Number of dynamic objects : 11 Bed channel count : 1 channel Bed channel configuration : LFE Audio #10 ID : 11 Format : AC-3 Format/Info : Audio Coding 3 Commercial name : Dolby Digital Format settings : Dolby Surround EX Codec ID : A_AC3 Duration : 2 h 6 min Bit rate mode : Constant Bit rate : 640 kb/s Channel(s) : 6 channels Channel layout : L R C LFE Ls Rs Sampling rate : 48.0 kHz Frame rate : 31.250 FPS (1536 SPF) Compression mode : Lossy Stream size : 578 MiB (1%) Title : Оригинал Language : English Service kind : Complete Main Default : No Forced : No Text #1 ID : 12 Format : UTF-8 Codec ID : S_TEXT/UTF8 Codec ID/Info : UTF-8 Plain Text Duration : 2 h 0 min Bit rate : 76 b/s Frame rate : 0.174 FPS Count of elements : 1261 Stream size : 67.3 KiB (0%) Title : full 1 Language : Russian Default : No Forced : No Text #2 ID : 13 Format : UTF-8 Codec ID : S_TEXT/UTF8 Codec ID/Info : UTF-8 Plain Text Duration : 2 h 0 min Bit rate : 79 b/s Frame rate : 0.174 FPS Count of elements : 1258 Stream size : 70.3 KiB (0%) Title : full 2 Language : Russian Default : No Forced : No Text #3 ID : 14 Format : UTF-8 Codec ID : S_TEXT/UTF8 Codec ID/Info : UTF-8 Plain Text Duration : 2 h 4 min Bit rate : 62 b/s Frame rate : 0.236 FPS Count of elements : 1766 Stream size : 57.2 KiB (0%) Title : SDH Language : English Default : No Forced : No Text #4 ID : 15 Format : UTF-8 Codec ID : S_TEXT/UTF8 Codec ID/Info : UTF-8 Plain Text Duration : 1 h 58 min Bit rate : 51 b/s Frame rate : 0.201 FPS Count of elements : 1424 Stream size : 44.9 KiB (0%) Title : full Language : English Default : No Forced : No Menu 00:00:00.000 : en:Chapter 01 00:12:31.624 : en:Chapter 02 00:24:33.583 : en:Chapter 03 00:31:34.291 : en:Chapter 04 00:40:20.375 : en:Chapter 05 00:53:38.000 : en:Chapter 06 01:07:30.499 : en:Chapter 07 01:19:08.583 : en:Chapter 08 01:27:38.750 : en:Chapter 09 01:38:33.375 : en:Chapter 10 01:51:29.458 : en:Chapter 11 02:00:14.333 : en:Chapter 12
[+] Скриншоты

Всего файлов в раздаче: 1 
The Fifth Element.1997.GBR.HDR.UHD.BDRemux.2160p.NNMClub.mkv93.79 GB

Похожие раздачи по запросу - Пятый
2024-05-31 magnet Пятый элемент / The Fifth Element (1997) WEB-DLRip-AVC от DoMiNo | D, P2, A | Open Matte 2.85 GB ↑ 0 ↓ 0
2024-05-23 magnet Пятый элемент / The Fifth Element (1997) WEB-DLRip от DoMiNo | D | Open Matte 1.45 GB ↑ 0 ↓ 0

Комментарии


Зарегистрируйтесь чтобы добавить комментарий
Торрент клиент
byTorrent - программа для загрузки торрент-файлов.

Скачать byTorrent.exe (1,5 МБ)

Скачать byTorrent.zip (0,6 МБ)

Поддержи torrent.by
российских рублей
(300 российских рублей это 4$)

Обратная связь rss

End game ©