↑↓torrent.by
Поиск
Логин:  Регистрация
Пароль:

Небо (2021) WEB-DL 1080p | Кинопоиск HD

download Скачать торрент-файл   magnet Магнитная ссылка Размер: 5.40 GB Добавлен: 2024-07-07 05:00
Пиры будут получены из сети DHT
Последний сидер был замечен вчера в 18:51
Информация о фильме Название: Небо Год выхода: 2021 Жанр: Биография, драма, боевик Режиссер: Игорь Копылов В ролях: Игорь Петренко, Иван Батарев, Сергей Губанов, Мария Миронова, Илья Носков, Николай Козак, Дмитрий Власкин, Сергей Жарков, Дмитрий Блохин, Григорий Некрасов О фильме: Подполковник Сошников и капитан Муравьев — два разных характера, две разные судьбы, которым суждено будет сойтись на военной базе Хмеймим. Во время боевого вылета самолет Сошникова был сбит турецким истребителем. Это событие освещали все мировые СМИ, а за ходом спасательной операции следила вся Россия. Выпущено: Россия / Триикс Медиа Продолжительность: 02:11:23 Субтитры: Русские Файл Качество: WEB-DL 1080p Формат: MKV Видео: AVC/H.264, 1920x800, ~5000 Kbps Аудио 1: AC3, 6 ch, 448 Kbps Аудио 2: E-AC3, 6 ch, 448 Kbps | Кинопоиск HD Релиз от: karfagen1975
[+] M/IGeneral Unique ID : 297414201165467402150536234612157053332 (0xDFBFE43F4FC4B91E78AD11EC0CBBF994) Complete name : Nebo.2021.WEB-DL.1080p.mkv Format : Matroska Format version : Version 4 File size : 5.40 GiB Duration : 2 h 11 min Overall bit rate : 5 887 kb/s Encoded date : UTC 2024-07-06 14:59:27 Writing application : mkvmerge v75.0.0 ('Goliath') 64-bit Writing library : libebml v1.4.4 + libmatroska v1.7.1 Cover : Yes Attachments : Cover.jpg Video ID : 1 Format : AVC Format/Info : Advanced Video Codec Format profile : High@L4 Format settings : CABAC / 3 Ref Frames Format settings, CABAC : Yes Format settings, Reference frames : 3 frames Codec ID : V_MPEG4/ISO/AVC Duration : 2 h 11 min Bit rate : 5 000 kb/s Width : 1 920 pixels Height : 800 pixels Display aspect ratio : 2.40:1 Frame rate mode : Constant Frame rate : 24.000 FPS Color space : YUV Chroma subsampling : 4:2:0 Bit depth : 8 bits Scan type : Progressive Bits/(Pixel*Frame) : 0.136 Stream size : 4.58 GiB (85%) Title : Небо (2021) WEB-DL 1080p Writing library : x264 core 161 r3048 b86ae3c Encoding settings : cabac=1 / ref=4 / deblock=1:1:1 / analyse=0x3:0x133 / me=umh / subme=9 / psy=1 / psy_rd=0.40:1.00 / mixed_ref=1 / me_range=24 / chroma_me=1 / trellis=0 / 8x8dct=1 / cqm=0 / deadzone=21,11 / fast_pskip=1 / chroma_qp_offset=-2 / threads=25 / lookahead_threads=2 / sliced_threads=0 / nr=0 / decimate=1 / interlaced=0 / bluray_compat=0 / constrained_intra=0 / bframes=8 / b_pyramid=1 / b_adapt=1 / b_bias=0 / direct=3 / weightb=1 / open_gop=0 / weightp=2 / keyint=72 / keyint_min=37 / scenecut=0 / intra_refresh=0 / rc_lookahead=30 / rc=2pass / mbtree=1 / bitrate=5000 / ratetol=1.0 / qcomp=0.80 / qpmin=1 / qpmax=69 / qpstep=4 / cplxblur=20.0 / qblur=0.5 / vbv_maxrate=7500 / vbv_bufsize=10000 / nal_hrd=none / filler=0 / ip_ratio=1.40 / aq=1:1.00 Language : Russian Default : Yes Forced : No Color range : Limited Color primaries : BT.709 Transfer characteristics : BT.709 Matrix coefficients : BT.709 Audio #1 ID : 2 Format : AC-3 Format/Info : Audio Coding 3 Commercial name : Dolby Digital Codec ID : A_AC3 Duration : 2 h 11 min Bit rate mode : Constant Bit rate : 448 kb/s Channel(s) : 6 channels Channel layout : L R C LFE Ls Rs Sampling rate : 48.0 kHz Frame rate : 31.250 FPS (1536 SPF) Compression mode : Lossy Stream size : 421 MiB (8%) Language : Russian Service kind : Complete Main Default : No Forced : No Audio #2 ID : 3 Format : E-AC-3 Format/Info : Enhanced AC-3 Commercial name : Dolby Digital Plus Codec ID : A_EAC3 Duration : 2 h 11 min Bit rate mode : Constant Bit rate : 448 kb/s Channel(s) : 6 channels Channel layout : L R C LFE Ls Rs Sampling rate : 48.0 kHz Frame rate : 31.250 FPS (1536 SPF) Compression mode : Lossy Stream size : 421 MiB (8%) Language : Russian Service kind : Complete Main Default : No Forced : No Text ID : 4 Format : UTF-8 Codec ID : S_TEXT/UTF8 Codec ID/Info : UTF-8 Plain Text Duration : 2 h 10 min Bit rate : 96 b/s Count of elements : 1354 Stream size : 92.2 KiB (0%) Title : Full Language : Russian Default : No Forced : No Menu 00:00:00.000 : ru:Глава 1 00:09:21.083 : ru:Глава 2 00:18:26.833 : ru:Глава 3 00:26:48.958 : ru:Глава 4 00:34:53.874 : ru:Глава 5 00:42:58.332 : ru:Глава 6 00:51:51.957 : ru:Глава 7 01:00:01.998 : ru:Глава 8 01:08:03.998 : ru:Глава 9 01:17:15.748 : ru:Глава 10 01:25:49.581 : ru:Глава 11 01:34:47.831 : ru:Глава 12 01:44:37.956 : ru:Глава 13 01:52:55.956 : ru:Глава 14 02:01:45.497 : ru:Глава 15
[+] Скриншоты

Всего файлов в раздаче: 1 
Nebo.2021.WEB-DL.1080p.mkv5.40 GB

Похожие раздачи по запросу - Небо
2024-07-18 magnet Миша Гулько - Синее небо России: Лучшие песни [2CD] (1995) FLAC 645.02 MB ↑ 0 ↓ 0
2024-07-13 magnet Белое пластиковое небо / Muanyag egbolt / White Plastic Sky (2023) WEB-DL 1080p | D 4.05 GB ↑ 0 ↓ 2
2024-06-02 magnet Ванильное небо (2024) WEB-DLRip от Generalfilm | КПК 392.04 MB ↑ 0 ↓ 0
2023-09-08 magnet Андрей Лисьев - Сломанное небо Салактионы (2023) MP3 517.79 MB ↑ 0 ↓ 0
2021-11-19 magnet Небо (2020) WEBRip 720p 3.34 GB ↑ 0 ↓ 0
2021-11-19 magnet Небо (2020) WEB-DL 1080p от ELEKTRI4KA 2.81 GB ↑ 1 ↓ 0

Комментарии


Зарегистрируйтесь чтобы добавить комментарий
Торрент клиент
byTorrent - программа для загрузки торрент-файлов.

Скачать byTorrent.exe (1,5 МБ)

Скачать byTorrent.zip (0,6 МБ)

Поддержи torrent.by
российских рублей
(300 российских рублей это 4$)

Обратная связь rss

End game ©