↑↓torrent.by
Поиск
Логин:  Регистрация
Пароль:

Список подозреваемых / Могильник / Boneyard (2024) WEB-DL 720p от селезень | P | TVShows, HDRezka Studio

download Скачать торрент-файл   magnet Магнитная ссылка Размер: 2.66 GB Добавлен: 2024-07-07 05:00
Пиры будут получены из сети DHT
Последний сидер был замечен 2024-07-12 03:45
Информация о фильме Название: Список подозреваемых / Могильник Оригинальное название: Boneyard Год выхода: 2024 Жанр: боевик, триллер, драма, криминал, детектив Режиссер: Азиф Акбар В ролях: Брайан Ван Холт, Мэл Гибсон, Нора Зеетнер, Габриэль Хоф, Фифти Сент, Спайс Уильямс, Уэстон Кейдж, Майкл Сироу, Шон Патрик Брайан, Бренна Мари Нарайан и др. О фильме: Лучшие агенты ФБР и полиция разыскивают серийного преступника, жестоко убившего 11 женщин. След удается взять только детективу Ортега, но после того, как пропадает его племянница, дело принимает еще более опасный поворот. Под подозрением находится каждый, кто ведет расследование. Страна: США Продолжительность: 01:36:44 Перевод 1: Профессиональный (многоголосый, закадровый) | TVShows Перевод 2: Профессиональный (многоголосый, закадровый) | HDRezka Studio Субтитры: Русские (forced), английские Файл Формат: Matroska Качество: WEB-DL 720p | AMZN Видео: 1248x520 at 23.976 fps, MPEG-4 AVC, ~2276 kbps Аудио 1: AC3, 6 ch, ~640 kbps - | Русский | | TVShows Аудио 2: AC3, 2 ch, ~192 kbps - | Русский | | HDRezka Studio Аудио 3: AC3, 2 ch, ~192 kbps - | Русский | | HDRezka Studio | 18+ Аудио 4: E-AC3, 6 ch, ~640 kbps - | Английский | Формат субтитров: softsub (SRT)
[+] M/IGeneral Unique ID : 129862383733311077101000731304028931672 (0x61B295D9605497FAE4A9B9C79C720658) Complete name : K:Boneyard.2024.AMZN.WEB-DL.720p.x264.seleZen.mkv Format : Matroska Format version : Version 4 File size : 2.66 GiB Duration : 1 h 36 min Overall bit rate : 3 943 kb/s Frame rate : 23.976 FPS Movie name : Boneyard.2024.AMZN.WEB-DL.720p.x264.seleZen Encoded date : 2024-07-06 19:55:52 UTC Writing application : mkvmerge v85.0 ('Shame For You') 64-bit Writing library : libebml v1.4.5 + libmatroska v1.7.1 Cover : Yes Attachments : cover.jpg / small_cover.jpg Video ID : 1 Format : AVC Format/Info : Advanced Video Codec Format profile : High@L3.1 Format settings : CABAC / 4 Ref Frames Format settings, CABAC : Yes Format settings, Reference : 4 frames Codec ID : V_MPEG4/ISO/AVC Duration : 1 h 36 min Bit rate mode : Constant Bit rate : 2 276 kb/s Nominal bit rate : 4 000 kb/s Width : 1 248 pixels Height : 520 pixels Display aspect ratio : 2.40:1 Frame rate mode : Constant Frame rate : 23.976 (24000/1001) FPS Color space : YUV Chroma subsampling : 4:2:0 Bit depth : 8 bits Scan type : Progressive Bits/(Pixel*Frame) : 0.146 Stream size : 1.54 GiB (58%) Title : -=DoMiNo=- Language : English Default : Yes Forced : No Color range : Limited Color primaries : BT.709 Transfer characteristics : BT.709 Matrix coefficients : BT.709 Audio #1 ID : 2 Format : AC-3 Format/Info : Audio Coding 3 Commercial name : Dolby Digital Codec ID : A_AC3 Duration : 1 h 36 min Bit rate mode : Constant Bit rate : 640 kb/s Channel(s) : 6 channels Channel layout : L R C LFE Ls Rs Sampling rate : 48.0 kHz Frame rate : 31.250 FPS (1536 SPF) Compression mode : Lossy Stream size : 443 MiB (16%) Title : MVO - TVShows Language : Russian Service kind : Complete Main Default : Yes Forced : No Dialog Normalization : -31 dB cmixlev : -4.5 dB surmixlev : -6 dB dialnorm_Average : -31 dB dialnorm_Minimum : -31 dB dialnorm_Maximum : -31 dB Audio #2 ID : 3 Format : AC-3 Format/Info : Audio Coding 3 Commercial name : Dolby Digital Codec ID : A_AC3 Duration : 1 h 36 min Bit rate mode : Constant Bit rate : 192 kb/s Channel(s) : 2 channels Channel layout : L R Sampling rate : 48.0 kHz Frame rate : 31.250 FPS (1536 SPF) Compression mode : Lossy Stream size : 133 MiB (5%) Title : MVO - HDRezka Studio Language : Russian Service kind : Complete Main Default : No Forced : No Dialog Normalization : -31 dB dialnorm_Average : -31 dB dialnorm_Minimum : -31 dB dialnorm_Maximum : -31 dB Audio #3 ID : 4 Format : AC-3 Format/Info : Audio Coding 3 Commercial name : Dolby Digital Codec ID : A_AC3 Duration : 1 h 36 min Bit rate mode : Constant Bit rate : 192 kb/s Channel(s) : 2 channels Channel layout : L R Sampling rate : 48.0 kHz Frame rate : 31.250 FPS (1536 SPF) Compression mode : Lossy Stream size : 133 MiB (5%) Title : MVO - HDRezka Studio | 18+ Language : Russian Service kind : Complete Main Default : No Forced : No Dialog Normalization : -31 dB dialnorm_Average : -31 dB dialnorm_Minimum : -31 dB dialnorm_Maximum : -31 dB Audio #4 ID : 5 Format : E-AC-3 Format/Info : Enhanced AC-3 Commercial name : Dolby Digital Plus Codec ID : A_EAC3 Duration : 1 h 36 min Bit rate mode : Constant Bit rate : 640 kb/s Channel(s) : 6 channels Channel layout : L R C LFE Ls Rs Sampling rate : 48.0 kHz Frame rate : 31.250 FPS (1536 SPF) Compression mode : Lossy Stream size : 443 MiB (16%) Language : English Service kind : Complete Main Default : No Forced : No Dialog Normalization : -31 dB compr : -0.28 dB dialnorm_Average : -31 dB dialnorm_Minimum : -31 dB dialnorm_Maximum : -31 dB Text #1 ID : 6 Format : UTF-8 Codec ID : S_TEXT/UTF8 Codec ID/Info : UTF-8 Plain Text Duration : 1 h 29 min Bit rate : 66 b/s Frame rate : 0.243 FPS Count of elements : 1306 Stream size : 43.9 KiB (0%) Language : English Default : No Forced : No Text #2 ID : 7 Format : UTF-8 Codec ID : S_TEXT/UTF8 Codec ID/Info : UTF-8 Plain Text Duration : 1 h 36 min Bit rate : 70 b/s Frame rate : 0.267 FPS Count of elements : 1539 Stream size : 50.0 KiB (0%) Title : SDH Language : English Default : No Forced : No Text #3 ID : 8 Format : UTF-8 Codec ID : S_TEXT/UTF8 Codec ID/Info : UTF-8 Plain Text Duration : 1 h 28 min Bit rate : 0 b/s Frame rate : 0.002 FPS Count of elements : 12 Stream size : 569 Bytes (0%) Title : Forced Language : Russian Default : No Forced : No Menu 00:00:00.000 : en:Scene 01 01:30:45.458 : en:End Credits
Релиз: Присоединяйся к: Кликай на баннеры.

Всего файлов в раздаче: 1 
Boneyard.2024.AMZN.WEB-DL.720p.x264.seleZen.mkv2.66 GB

Похожие раздачи по запросу - Список
2024-07-07 magnet Список подозреваемых / Могильник / Boneyard (2024) WEB-DLRip от DoMiNo & селезень | P | TVShows 1.46 GB ↑ 0 ↓ 0
2024-07-07 magnet Список подозреваемых / Могильник / Boneyard (2024) WEB-DLRip от DoMiNo & селезень | P | HDRezka Studio 1.46 GB ↑ 0 ↓ 0
2024-07-07 magnet Список подозреваемых / Могильник / Boneyard (2024) WEB-DL 1080p от New-Team | P 4.90 GB ↑ 0 ↓ 0
2024-07-04 magnet Список подозреваемых / Могильник / Boneyard (2024) WEB-DLRip от DoMiNo & селезень | P2 | ViruseProject 1.46 GB ↑ 0 ↓ 0
2024-07-04 magnet Список подозреваемых / Могильник / Boneyard (2024) WEB-DL 1080p | ViruseProject 4.46 GB ↑ 0 ↓ 0
2023-12-21 magnet Белый список (2022) WEBRip от ELEKTRI4KA | KION 1.46 GB ↑ 0 ↓ 0
2022-07-02 magnet Список смертников / The Terminal List [S01] (2022) WEB-DL 720p | L 4К9.04 GB ↑ 0 ↓ 0

Комментарии


Зарегистрируйтесь чтобы добавить комментарий
Торрент клиент
byTorrent - программа для загрузки торрент-файлов.

Скачать byTorrent.exe (1,5 МБ)

Скачать byTorrent.zip (0,6 МБ)

Поддержи torrent.by
российских рублей
(300 российских рублей это 4$)

Обратная связь rss

End game ©