↑↓torrent.by
Поиск
Логин:  Регистрация
Пароль:

Оппенгеймер / Oppenheimer (2023) BDRip-HEVC 1080p от RIPS CLUB | D, P, L, P2, A | IMAX

download Скачать торрент-файл   magnet Магнитная ссылка Размер: 13.53 GB Раздают: 0 Качают: 4 Добавлен: 2024-07-07 05:00
Пиры будут получены из сети DHT
Последний сидер был замечен 2024-07-21 18:32
Название: Оппенгеймер Оригинальное название: Oppenheimer Год производства: 2023 Производство: США, Великобритания / Atlas Entertainment, Gadget Films, Syncopy, Universal Pictures Жанр: биография, драма, история Режиссёр: Кристофер Нолан В ролях: Киллиан Мерфи, Эмили Блант, Мэтт Дэймон, Роберт Дауни мл., Флоренс Пью, Джош Хартнетт, Дэвид Крамхолц, Бенни Сэфди, Олден Эренрайк, Кеннет Брана О фильме: История жизни американского физика-теоретика Роберта Оппенгеймера, который во времена Второй мировой войны руководил Манхэттенским проектом — секретными разработками ядерного оружия. Продолжительность: 03:00:34 Перевод: дублированный официальный, дублированный неофициальный, многоголосый профессиональный, любительский многоголосый, двухголосый профессиональный, авторский Качество: BDRip-HEVC 1080p Кодек: HEVC (x265) Видео: 1920x1080, ~6253 Kbps, HEVC (Main10@L.4.1@High) 10 бит Звук: Аудио1: AC3, 6 ch, 384 Kbps - Русский, DUB (Bravo Records Georgia) Аудио2: AC3, 6 ch, 640 Kbps - Русский, DUB (Red Head Sound) Аудио3: AC3, 6 ch, 448 Kbps - Русский, DUB (TVShows) Аудио4: AC3, 6 ch, 640 Kbps - Русский, MVO (LostFilm) Аудио5: AC3, 6 ch, 640 Kbps - Русский, MVO (LineFilm) Аудио6: AC3, 2 ch, 192 Kbps - Русский, DVO (Digi Media по заказу TV3 Group) Аудио7: AC3, 6 ch, 640 Kbps - Русский, AVO (Юрий Сербин) Аудио8: AC3, 2 ch, 256 Kbps - Украинский, DUB (LeDoyen) Аудио9: AC3, 6 ch, 640 Kbps - Английский Субтитры: русские (full, forced), украинские (full, forced), английские (full, SDH) Навигация по главам: Есть
[+] Лог (x265 info) + Mediainfo x265 : frame I: 1092, Avg QP:17.46 kb/s: 17490.74 x265 : frame P: 36391, Avg QP:19.10 kb/s: 11762.85 x265 : frame B: 221989, Avg QP:21.36 kb/s: 5293.99 x265 : Weighted P-Frames: Y:5.4% UV:4.2% x265 : Weighted B-Frames: Y:5.2% UV:3.7% x265 : encoded 259472 frames in 171499.98s (1.51 fps), 6252.58 kb/s, Avg QP:21.02 Общее Уникальный идентификатор : 285984461822067445320351629889349628786 (0xD7269A96E9E1B4DCEEEA86E203383372) Полное имя : .Оппенгеймер.Oppenheimer.2023.BDRip-HEVC.1080p.mkv Формат : Matroska Версия формата : Version 4 Размер файла : 13,5 Гбайт Продолжительность : 3 ч. 0 мин. Общий битрейт : 10,7 Мбит/сек Частота кадров : 23,976 кадра/сек Название фильма : Оппенгеймер / Оппенгеймер Кодирование выполнил : OldGamer Тип содержимого : Movie Дата выпуска : 2023-07-19 Дата записи : 2023-07-19 Программа кодирования : mkvmerge v85.0 ('Shame For You') 64-bit Библиотека кодирования : libebml v1.4.5 + libmatroska v1.7.1 / xvid4psp5 Обложка : Yes Attachments : cover.jpg ACTOR : Киллиан Мерфи, Эмили Блант, Мэтт Деймон, Роберт Дауни-младший, Флоренс Пью, Джош Хартнетт, Кейси Аффлек, Рами Малек, Кеннет Брана, Бенни Сафди, Джейсон Кларк, Дилан Арнольд, Том Конти, Джеймс Д'Арси, Давид Дастмалчян, Дейн Дехаан, Олден Эйренрайк, То... ARTIST : Киллиан Мерфи, Эмили Блант, Мэтт Деймон, Роберт Дауни-младший, Флоренс Пью, Джош Хартнетт, Кейси Аффлек, Рами Малек, Кеннет Брана, Бенни Сафди, Джейсон Кларк, Дилан Арнольд, Том Конти, Джеймс Д'Арси, Давид Дастмалчян, Дейн Дехаан, Олден Эйренрайк, То... DIRECTOR : Кристофер Нолан GENRE : драма, история LAW_RATING : R PRODUCER : Кристофер Нолан, Эмма Томас, Чарльз Ровен PRODUCTION_STUDIO : Atlas Entertainment RATING : R SYNOPSIS : История жизни американского физика-теоретика Роберта Оппенгеймера, который во времена Второй мировой войны руководил Манхэттенским проектом — секретными разработками ядерного оружия. Видео Идентификатор : 1 Формат : HEVC Формат/Информация : High Efficiency Video Coding Профиль формата : Main 10@L4.1@High Идентификатор кодека : V_MPEGH/ISO/HEVC Продолжительность : 3 ч. 0 мин. Битрейт : 6 253 Кбит/сек Ширина : 1 920 пикселей Высота : 1 080 пикселей Соотношение сторон дисплея : 16:9 Режим частоты кадров : Постоянный Частота кадров : 23,976 (24000/1001) кадра/сек Цветовое пространство : YUV Цветовая субдискретизация : 4:2:0 Битовая глубина : 10 бит Бит/(Пиксели*Кадры) : 0.126 Размер потока : 7,88 Гбайт (58%) Заголовок : Oppenheimer / Rip by OldGamer Библиотека кодирования : x265 3.6+27-8787e8702: 10bit Параметры библиотеки кодирования : cpuid=1111039 / frame-threads=4 / numa-pools=16 / wpp / no-pmode / no-pme / no-psnr / no-ssim / log-level=2 / input-csp=1 / input-res=1920x1080 / interlace=0 / total-frames=259472 / level-idc=41 / high-tier=1 / uhd-bd=0 / ref=5 / no-allow-non-conformance / no-repeat-headers / annexb / no-aud / no-eob / no-eos / no-hrd / info / hash=0 / temporal-layers=0 / open-gop / min-keyint=23 / keyint=240 / gop-lookahead=0 / bframes=16 / b-adapt=2 / b-pyramid / bframe-bias=0 / rc-lookahead=40 / lookahead-slices=0 / scenecut=40 / no-hist-scenecut / radl=0 / no-splice / no-intra-refresh / ctu=32 / min-cu-size=8 / rect / amp / max-tu-size=32 / tu-inter-depth=4 / tu-intra-depth=4 / limit-tu=1 / rdoq-level=2 / dynamic-rd=0.00 / no-ssim-rd / signhide / no-tskip / nr-intra=0 / nr-inter=0 / no-constrained-intra / no-strong-intra-smoothing / max-merge=5 / limit-refs=3 / no-limit-modes / me=3 / subme=7 / merange=57 / temporal-mvp / no-frame-dup / no-hme / weightp / weightb / no-analyze-src-pics / deblock=-2:-2 / no-sao / no-sao-non-deblock / rd=6 / selective-sao=0 / no-early-skip / no-rskip / no-fast-intra / no-tskip-fast / no-cu-lossless / b-intra / no-splitrd-skip / rdpenalty=0 / psy-rd=2.00 / psy-rdoq=1.00 / no-rd-refine / no-lossless / cbqpoffs=0 / crqpoffs=0 / rc=crf / crf=20.2 / qcomp=0.60 / qpstep=4 / stats-write=0 / stats-read=0 / vbv-maxrate=50000 / vbv-bufsize=50000 / vbv-init=0.9 / min-vbv-fullness=50.0 / max-vbv-fullness=80.0 / crf-max=0.0 / crf-min=0.0 / ipratio=1.40 / pbratio=1.30 / aq-mode=1 / aq-strength=0.80 / no-cutree / zone-count=1 / zones: / start-frame=250497 / end-frame=259472 / qp=36 / no-strict-cbr / qg-size=32 / no-rc-grain / qpmax=69 / qpmin=0 / no-const-vbv / sar=1 / overscan=0 / videoformat=5 / range=0 / colorprim=2 / transfer=2 / colormatrix=2 / chromaloc=0 / display-window=0 / cll=0,0 / min-luma=0 / max-luma=1023 / log2-max-poc-lsb=8 / vui-timing-info / vui-hrd-info / slices=1 / no-opt-qp-pps / no-opt-ref-list-length-pps / no-multi-pass-opt-rps / scenecut-bias=0.00 / no-opt-cu-delta-qp / no-aq-motion / no-hdr10 / no-hdr10-opt / no-dhdr10-opt / no-idr-recovery-sei / analysis-reuse-level=0 / analysis-save-reuse-level=0 / analysis-load-reuse-level=0 / scale-factor=0 / refine-intra=0 / refine-inter=0 / refine-mv=1 / refine-ctu-distortion=0 / no-limit-sao / ctu-info=0 / no-lowpass-dct / refine-analysis-type=0 / copy-pic=1 / max-ausize-factor=1.0 / no-dynamic-refine / no-single-sei / no-hevc-aq / no-svt / no-field / qp-adaptation-range=1.00 / scenecut-aware-qp=0conformance-window-offsets / right=0 / bottom=0 / decoder-max-rate=0 / no-vbv-live-multi-pass / no-mcstf / no-sbrc Язык : Английский По умолчанию : Да Принудительно : Нет Аудио #1 Идентификатор : 2 Формат : AC-3 Формат/Информация : Audio Coding 3 Коммерческое название : Dolby Digital Идентификатор кодека : A_AC3 Продолжительность : 3 ч. 0 мин. Вид битрейта : Постоянный Битрейт : 384 Кбит/сек Канал(-ы) : 6 каналов Расположение каналов : L R C LFE Ls Rs Частота дискретизации : 48,0 КГц Частота кадров : 31,250 кадров/сек (1536 SPF) Метод сжатия : С потерями Размер потока : 496 Мбайт (4%) Заголовок : DUB (Bravo Records Georgia) Язык : Русский Вид сервиса : Complete Main По умолчанию : Да Принудительно : Нет Нормализация звука речи : -26 dB compr : -0.28 dB cmixlev : -3.0 dB surmixlev : -3 dB ltrtcmixlev : -3.0 dB ltrtsurmixlev : -3.0 dB lorocmixlev : -3.0 dB lorosurmixlev : -3.0 dB dialnorm_Average : -26 dB dialnorm_Minimum : -26 dB dialnorm_Maximum : -26 dB Аудио #2 Идентификатор : 3 Формат : AC-3 Формат/Информация : Audio Coding 3 Коммерческое название : Dolby Digital Идентификатор кодека : A_AC3 Продолжительность : 3 ч. 0 мин. Вид битрейта : Постоянный Битрейт : 640 Кбит/сек Канал(-ы) : 6 каналов Расположение каналов : L R C LFE Ls Rs Частота дискретизации : 48,0 КГц Частота кадров : 31,250 кадров/сек (1536 SPF) Метод сжатия : С потерями Размер потока : 826 Мбайт (6%) Заголовок : DUB (Red Head Sound) Язык : Русский Вид сервиса : Complete Main По умолчанию : Нет Принудительно : Нет Нормализация звука речи : -31 dB cmixlev : -3.0 dB surmixlev : -3 dB dialnorm_Average : -31 dB dialnorm_Minimum : -31 dB dialnorm_Maximum : -31 dB Аудио #3 Идентификатор : 4 Формат : AC-3 Формат/Информация : Audio Coding 3 Коммерческое название : Dolby Digital Идентификатор кодека : A_AC3 Продолжительность : 3 ч. 0 мин. Вид битрейта : Постоянный Битрейт : 448 Кбит/сек Канал(-ы) : 6 каналов Расположение каналов : L R C LFE Ls Rs Частота дискретизации : 48,0 КГц Частота кадров : 31,250 кадров/сек (1536 SPF) Метод сжатия : С потерями Размер потока : 578 Мбайт (4%) Заголовок : DUB (TVShows) Язык : Русский Вид сервиса : Complete Main По умолчанию : Нет Принудительно : Нет Нормализация звука речи : -31 dB compr : -0.28 dB cmixlev : -3.0 dB surmixlev : -3 dB dmixmod : Lo/Ro ltrtcmixlev : -3.0 dB ltrtsurmixlev : -3.0 dB lorocmixlev : -3.0 dB lorosurmixlev : -3.0 dB dialnorm_Average : -31 dB dialnorm_Minimum : -31 dB dialnorm_Maximum : -31 dB Аудио #4 Идентификатор : 5 Формат : AC-3 Формат/Информация : Audio Coding 3 Коммерческое название : Dolby Digital Идентификатор кодека : A_AC3 Продолжительность : 3 ч. 0 мин. Вид битрейта : Постоянный Битрейт : 640 Кбит/сек Канал(-ы) : 6 каналов Расположение каналов : L R C LFE Ls Rs Частота дискретизации : 48,0 КГц Частота кадров : 31,250 кадров/сек (1536 SPF) Метод сжатия : С потерями Размер потока : 826 Мбайт (6%) Заголовок : MVO (LostFilm) Язык : Русский Вид сервиса : Complete Main По умолчанию : Нет Принудительно : Нет Нормализация звука речи : -27 dB compr : -0.28 dB cmixlev : -3.0 dB surmixlev : -3 dB mixlevel : 285 dB roomtyp : Small dialnorm_Average : -27 dB dialnorm_Minimum : -27 dB dialnorm_Maximum : -27 dB Аудио #5 Идентификатор : 6 Формат : AC-3 Формат/Информация : Audio Coding 3 Коммерческое название : Dolby Digital Идентификатор кодека : A_AC3 Продолжительность : 3 ч. 0 мин. Вид битрейта : Постоянный Битрейт : 640 Кбит/сек Канал(-ы) : 6 каналов Расположение каналов : L R C LFE Ls Rs Частота дискретизации : 48,0 КГц Частота кадров : 31,250 кадров/сек (1536 SPF) Метод сжатия : С потерями Размер потока : 826 Мбайт (6%) Заголовок : MVO (LineFilm) Язык : Русский Вид сервиса : Complete Main По умолчанию : Нет Принудительно : Нет Нормализация звука речи : -27 dB compr : -0.28 dB cmixlev : -3.0 dB surmixlev : -3 dB mixlevel : 285 dB roomtyp : Small dialnorm_Average : -27 dB dialnorm_Minimum : -27 dB dialnorm_Maximum : -27 dB Аудио #6 Идентификатор : 7 Формат : AC-3 Формат/Информация : Audio Coding 3 Коммерческое название : Dolby Digital Идентификатор кодека : A_AC3 Продолжительность : 3 ч. 0 мин. Вид битрейта : Постоянный Битрейт : 192 Кбит/сек Канал(-ы) : 2 канала Расположение каналов : L R Частота дискретизации : 48,0 КГц Частота кадров : 31,250 кадров/сек (1536 SPF) Метод сжатия : С потерями Размер потока : 248 Мбайт (2%) Заголовок : DVO (Digi Media по заказу TV3 Group) Язык : Русский Вид сервиса : Complete Main По умолчанию : Нет Принудительно : Нет Нормализация звука речи : -31 dB compr : -0.28 dB ltrtcmixlev : -3.0 dB ltrtsurmixlev : -3.0 dB lorocmixlev : -3.0 dB lorosurmixlev : -3.0 dB dialnorm_Average : -31 dB dialnorm_Minimum : -31 dB dialnorm_Maximum : -31 dB Аудио #7 Идентификатор : 8 Формат : AC-3 Формат/Информация : Audio Coding 3 Коммерческое название : Dolby Digital Идентификатор кодека : A_AC3 Продолжительность : 3 ч. 0 мин. Вид битрейта : Постоянный Битрейт : 640 Кбит/сек Канал(-ы) : 6 каналов Расположение каналов : L R C LFE Ls Rs Частота дискретизации : 48,0 КГц Частота кадров : 31,250 кадров/сек (1536 SPF) Метод сжатия : С потерями Размер потока : 826 Мбайт (6%) Заголовок : AVO (Юрий Сербин) Язык : Русский Вид сервиса : Complete Main По умолчанию : Нет Принудительно : Нет Нормализация звука речи : -27 dB compr : -0.28 dB cmixlev : -3.0 dB surmixlev : -3 dB mixlevel : 285 dB roomtyp : Small dialnorm_Average : -27 dB dialnorm_Minimum : -27 dB dialnorm_Maximum : -27 dB Аудио #8 Идентификатор : 9 Формат : E-AC-3 Формат/Информация : Enhanced AC-3 Коммерческое название : Dolby Digital Plus Идентификатор кодека : A_EAC3 Продолжительность : 3 ч. 0 мин. Вид битрейта : Постоянный Битрейт : 256 Кбит/сек Канал(-ы) : 6 каналов Расположение каналов : L R C LFE Ls Rs Частота дискретизации : 48,0 КГц Частота кадров : 31,250 кадров/сек (1536 SPF) Метод сжатия : С потерями Размер потока : 330 Мбайт (2%) Заголовок : DUB (LeDoyen) Язык : Украинский Вид сервиса : Complete Main По умолчанию : Нет Принудительно : Нет Нормализация звука речи : -31 dB dialnorm_Average : -31 dB dialnorm_Minimum : -31 dB dialnorm_Maximum : -31 dB Аудио #9 Идентификатор : 10 Формат : AC-3 Формат/Информация : Audio Coding 3 Коммерческое название : Dolby Digital Идентификатор кодека : A_AC3 Продолжительность : 3 ч. 0 мин. Вид битрейта : Постоянный Битрейт : 640 Кбит/сек Канал(-ы) : 6 каналов Расположение каналов : L R C LFE Ls Rs Частота дискретизации : 48,0 КГц Частота кадров : 31,250 кадров/сек (1536 SPF) Метод сжатия : С потерями Размер потока : 826 Мбайт (6%) Язык : Английский Вид сервиса : Complete Main По умолчанию : Нет Принудительно : Нет Нормализация звука речи : -27 dB compr : -0.28 dB cmixlev : -3.0 dB surmixlev : -3 dB mixlevel : 285 dB roomtyp : Small dialnorm_Average : -27 dB dialnorm_Minimum : -27 dB dialnorm_Maximum : -27 dB Текст #1 Идентификатор : 11 Формат : UTF-8 Идентификатор кодека : S_TEXT/UTF8 Идентификатор кодека/Информация : UTF-8 Plain Text Продолжительность : 2 ч. 12 мин. Битрейт : 0 бит/сек Частота кадров : 0,002 кадр/сек Число элементов : 12 Размер потока : 681 байт (0%) Заголовок : Russian forced v.1 Язык : Русский По умолчанию : Да Принудительно : Нет Текст #2 Идентификатор : 12 Формат : UTF-8 Идентификатор кодека : S_TEXT/UTF8 Идентификатор кодека/Информация : UTF-8 Plain Text Продолжительность : 2 ч. 53 мин. Битрейт : 0 бит/сек Частота кадров : 0,001 кадр/сек Число элементов : 10 Размер потока : 594 байта (0%) Заголовок : Russian forced v.2 Язык : Русский По умолчанию : Нет Принудительно : Нет Текст #3 Идентификатор : 13 Формат : UTF-8 Идентификатор кодека : S_TEXT/UTF8 Идентификатор кодека/Информация : UTF-8 Plain Text Продолжительность : 1 ч. 33 мин. Битрейт : 0 бит/сек Частота кадров : 0,001 кадр/сек Число элементов : 6 Размер потока : 590 байт (0%) Заголовок : Russian forced v.3 Язык : Русский По умолчанию : Нет Принудительно : Нет Текст #4 Идентификатор : 14 Формат : UTF-8 Идентификатор кодека : S_TEXT/UTF8 Идентификатор кодека/Информация : UTF-8 Plain Text Продолжительность : 2 ч. 52 мин. Битрейт : 150 бит/сек Частота кадров : 0,271 кадр/сек Число элементов : 2800 Размер потока : 190 КиБ (0%) Заголовок : Russian full LineFilm Язык : Русский По умолчанию : Нет Принудительно : Нет Текст #5 Идентификатор : 15 Формат : UTF-8 Идентификатор кодека : S_TEXT/UTF8 Идентификатор кодека/Информация : UTF-8 Plain Text Продолжительность : 2 ч. 53 мин. Битрейт : 150 бит/сек Частота кадров : 0,279 кадр/сек Число элементов : 2899 Размер потока : 190 КиБ (0%) Заголовок : Russian full Cool Story Blog Язык : Русский По умолчанию : Нет Принудительно : Нет Текст #6 Идентификатор : 16 Формат : UTF-8 Идентификатор кодека : S_TEXT/UTF8 Идентификатор кодека/Информация : UTF-8 Plain Text Продолжительность : 2 ч. 12 мин. Битрейт : 0 бит/сек Частота кадров : 0,002 кадр/сек Число элементов : 12 Размер потока : 665 байт (0%) Заголовок : Ukrainian forced Язык : Украинский По умолчанию : Нет Принудительно : Нет Текст #7 Идентификатор : 17 Формат : UTF-8 Идентификатор кодека : S_TEXT/UTF8 Идентификатор кодека/Информация : UTF-8 Plain Text Продолжительность : 2 ч. 59 мин. Битрейт : 129 бит/сек Частота кадров : 0,275 кадр/сек Число элементов : 2953 Размер потока : 170 КиБ (0%) Заголовок : Ukrainian full Язык : Украинский По умолчанию : Нет Принудительно : Нет Текст #8 Идентификатор : 18 Формат : UTF-8 Идентификатор кодека : S_TEXT/UTF8 Идентификатор кодека/Информация : UTF-8 Plain Text Продолжительность : 2 ч. 52 мин. Битрейт : 84 бит/сек Частота кадров : 0,282 кадр/сек Число элементов : 2908 Размер потока : 107 КиБ (0%) Заголовок : English full Язык : Английский По умолчанию : Нет Принудительно : Нет Текст #9 Идентификатор : 19 Формат : UTF-8 Идентификатор кодека : S_TEXT/UTF8 Идентификатор кодека/Информация : UTF-8 Plain Text Продолжительность : 2 ч. 53 мин. Битрейт : 89 бит/сек Частота кадров : 0,299 кадр/сек Число элементов : 3107 Размер потока : 114 КиБ (0%) Заголовок : English SDH Язык : Английский По умолчанию : Нет Принудительно : Нет Меню 00:00:00.000 : en:Chapter 01 00:07:23.526 : en:Chapter 02 00:16:36.078 : en:Chapter 03 00:27:23.976 : en:Chapter 04 00:36:01.534 : en:Chapter 05 00:42:51.652 : en:Chapter 06 00:52:31.607 : en:Chapter 07 00:59:56.593 : en:Chapter 08 01:10:53.541 : en:Chapter 09 01:17:58.215 : en:Chapter 10 01:24:14.341 : en:Chapter 11 01:36:07.011 : en:Chapter 12 01:43:06.931 : en:Chapter 13 01:51:19.590 : en:Chapter 14 02:00:18.378 : en:Chapter 15 02:09:02.193 : en:Chapter 16 02:17:08.637 : en:Chapter 17 02:32:04.949 : en:Chapter 18 02:47:40.634 : en:Chapter 19 02:54:12.442 : en:Chapter 20
[+] Скриншоты
Релиз от: OldGamer

Всего файлов в раздаче: 1 
Оппенгеймер.Oppenheimer.2023.iMAX.BDRip-HEVC.1080p.mkv13.53 GB

Похожие раздачи по запросу - Оппенгеймер
2024-03-13 magnet Оппенгеймер / Oppenheimer (2023) BDRip 720p от селезень | D, A, L | IMAX 11.25 GB ↑ 1 ↓ 0
2024-03-11 magnet Оппенгеймер / Oppenheimer (2023) BDRip 720p от Scarabey | IMAX | D | Red Head Sound 10.69 GB ↑ 1 ↓ 0
2024-03-11 magnet Оппенгеймер / Oppenheimer (2023) BDRemux 1080p от селезень | D, A, L | IMAX 42.16 GB ↑ 1 ↓ 0
2023-12-29 magnet Оппенгеймер / Oppenheimer (2023) BDRip 1080p от Generalfilm | D | IMAX 13.85 GB ↑ 0 ↓ 0
2023-12-01 magnet Оппенгеймер / Oppenheimer (2023) BDRip-AVC от DoMiNo & селезень | D | Red Head Sound | IMAX 1.46 GB ↑ 1 ↓ 0
2023-12-01 magnet Оппенгеймер / Oppenheimer (2023) BDRip-AVC от DoMiNo & селезень | D, A | Red Head Sound, TVShows, Сербин | IMAX 4.34 GB ↑ 0 ↓ 0
2023-12-01 magnet Оппенгеймер / Oppenheimer (2023) BDRip 1080p от Scarabey | IMAX | D | Red Head Sound 18.68 GB ↑ 0 ↓ 0

Комментарии


Зарегистрируйтесь чтобы добавить комментарий
Торрент клиент
byTorrent - программа для загрузки торрент-файлов.

Скачать byTorrent.exe (1,5 МБ)

Скачать byTorrent.zip (0,6 МБ)

Поддержи torrent.by
российских рублей
(300 российских рублей это 4$)

Обратная связь rss

End game ©