↑↓torrent.by
Поиск
Логин:  Регистрация
Пароль:

Мальчик и птица / Kimitachi Wa Dou Ikiru Ka / The Boy And The Heron (2023) BDRemux 1080p | D

download Скачать торрент-файл   magnet Магнитная ссылка Размер: 27.18 GB Добавлен: 2024-07-07 05:00
Пиры будут получены из сети DHT
Последний сидер был замечен 2024-07-07 05:00
Название: Мальчик и птица Оригинальное название: Kimitachi Wa Dou Ikiru Ka / The Boy And The Heron Год выхода: 2023 Производство: Япония / Studio Ghibli, Toho Жанр: Приключения, драма, фэнтези Перевод: Дублированный профессиональный Продолжительность: 02:03:56 Режиссёр: Хаяо Миядзаки В ролях: Сома Сантоки, Масаки Суда, Аимён, Ёсино Кимура, Ко Сибасаки, Сёхэи Хино, Такуя Кимура, Дзюн Кунимура, Каору Кобаяси, Дзюн Фубуки Описание: Через три года после начала Тихоокеанской войны ,мама мальчика Махито погибла при пожаре в Токио, а ещё через год отец женился на её сестре и отправил сына в фамильное поместье в сельской местности. Глава семьи работает на оборонном заводе и редко бывает дома, поэтому мальчику приходится проводить дни с беременной мачехой и в окружении пожилой прислуги, и, кроме того, с самого первого дня его донимает подозрительная серая цапля. Однажды птица говорит Махито, что может отвести его к матери и заманивает в загадочную башню, которую окружает множество местных легенд. Формат: MKV Качество: BDRemux 1080p Видео: MPEG4 AVC / ~22.0 Mb/s / 1920x1080 / 0.442 Бит/(Пиксели*Кадры) / 23.976 fps Аудио 01: E-AC-3, 6 ch, 448 kbps | Русский, DUB | CPI Films | Аудио 02: E-AC-3, 6 ch, 448 kbps | Русский, DUB | Студийная банда | Аудио 03: Dolby TrueHD, 8 ch, 3267 kbps | Английский | Аудио 04: Dolby TrueHD, 8 ch, 3267 kbps | Японский | Субтитры: Русские (Forced, Full), английские (Forced, Full)
[+] MediainfoComplete name : The.Boy.and.the.Heron.1080p.BDRemux.AVC.TrueHD.Atmos.7.1-SOFCJ.mkv Format : Matroska Format version : Version 2 File size : 27.2 GiB Duration : 2 h 3 min Overall bit rate mode : Variable Overall bit rate : 31.4 Mb/s Frame rate : 23.976 FPS Movie name : The.Boy.and.the.Heron.1080p.BDRemux.AVC.TrueHD.Atmos.7.1-SOFCJ Encoded date : 2024-07-05 19:06:08 UTC Writing application : mkvmerge v43.0.0 ('The Quartermaster') 64-bit Writing library : libebml v1.3.10 + libmatroska v1.5.2 Cover : Yes Attachments : cover.jpg Video ID : 1 Format : AVC Format/Info : Advanced Video Codec Format profile : High@L4.1 Format settings : CABAC / 4 Ref Frames Format settings, CABAC : Yes Format settings, Reference : 4 frames Format settings, Slice coun : 4 slices per frame Codec ID : V_MPEG4/ISO/AVC Duration : 2 h 3 min Bit rate mode : Variable Bit rate : 22.0 Mb/s Maximum bit rate : 32.0 Mb/s Width : 1 920 pixels Height : 1 080 pixels Display aspect ratio : 16:9 Frame rate mode : Constant Frame rate : 23.976 (24000/1001) FPS Color space : YUV Chroma subsampling : 4:2:0 Bit depth : 8 bits Scan type : Progressive Bits/(Pixel*Frame) : 0.442 Time code of first frame : 01:00:00:00 Stream size : 19.0 GiB (70%) Title : Language : English Default : Yes Forced : No Audio #1 ID : 2 Format : E-AC-3 Format/Info : Enhanced AC-3 Commercial name : Dolby Digital Plus Codec ID : A_EAC3 Duration : 2 h 3 min Bit rate mode : Constant Bit rate : 448 kb/s Channel(s) : 6 channels Channel layout : L R C LFE Ls Rs Sampling rate : 48.0 kHz Frame rate : 31.250 FPS (1536 SPF) Compression mode : Lossy Stream size : 397 MiB (1%) Title : CPI Films Language : Russian Service kind : Complete Main Default : Yes Forced : No Dialog Normalization : -27 dB compr : -0.28 dB dmixmod : Lo/Ro ltrtcmixlev : -3.0 dB ltrtsurmixlev : -3.0 dB lorocmixlev : -3.0 dB lorosurmixlev : -3.0 dB dialnorm_Average : -27 dB dialnorm_Minimum : -27 dB dialnorm_Maximum : -27 dB Audio #2 ID : 3 Format : E-AC-3 Format/Info : Enhanced AC-3 Commercial name : Dolby Digital Plus Codec ID : A_EAC3 Duration : 2 h 3 min Bit rate mode : Constant Bit rate : 448 kb/s Channel(s) : 6 channels Channel layout : L R C LFE Ls Rs Sampling rate : 48.0 kHz Frame rate : 31.250 FPS (1536 SPF) Compression mode : Lossy Stream size : 397 MiB (1%) Title : Студийная банда Language : Russian Service kind : Complete Main Default : No Forced : No Dialog Normalization : -27 dB compr : -0.28 dB dmixmod : Lo/Ro ltrtcmixlev : -3.0 dB ltrtsurmixlev : -3.0 dB lorocmixlev : -3.0 dB lorosurmixlev : -3.0 dB dialnorm_Average : -27 dB dialnorm_Minimum : -27 dB dialnorm_Maximum : -27 dB Audio #3 ID : 4 Format : MLP FBA 16-ch Format/Info : Meridian Lossless Packing FBA with 16-channel presentation Commercial name : Dolby TrueHD with Dolby Atmos Codec ID : A_TRUEHD Duration : 2 h 3 min Bit rate mode : Variable Bit rate : 4 156 kb/s Maximum bit rate : 6 408 kb/s Channel(s) : 8 channels Channel layout : L R C LFE Ls Rs Lb Rb Sampling rate : 48.0 kHz Frame rate : 1 200.000 FPS (40 SPF) Compression mode : Lossless Stream size : 3.60 GiB (13%) Language : Japanese Default : No Forced : No Number of dynamic objects : 11 Bed channel count : 1 channel Bed channel configuration : LFE Audio #4 ID : 5 Format : MLP FBA 16-ch Format/Info : Meridian Lossless Packing FBA with 16-channel presentation Commercial name : Dolby TrueHD with Dolby Atmos Codec ID : A_TRUEHD Duration : 2 h 3 min Bit rate mode : Variable Bit rate : 4 256 kb/s Maximum bit rate : 6 519 kb/s Channel(s) : 8 channels Channel layout : L R C LFE Ls Rs Lb Rb Sampling rate : 48.0 kHz Frame rate : 1 200.000 FPS (40 SPF) Compression mode : Lossless Stream size : 3.68 GiB (14%) Title : Dub Language : English Default : No Forced : No Number of dynamic objects : 11 Bed channel count : 1 channel Bed channel configuration : LFE Text #1 ID : 6 Format : UTF-8 Codec ID : S_TEXT/UTF8 Codec ID/Info : UTF-8 Plain Text Duration : 2 h 0 min Bit rate : 3 b/s Frame rate : 0.006 FPS Count of elements : 40 Stream size : 2.84 KiB (0%) Title : Forсed Language : Russian Default : No Forced : No Text #2 ID : 7 Format : UTF-8 Codec ID : S_TEXT/UTF8 Codec ID/Info : UTF-8 Plain Text Duration : 2 h 2 min Bit rate : 48 b/s Frame rate : 0.122 FPS Count of elements : 897 Stream size : 43.3 KiB (0%) Title : Full Language : Russian Default : No Forced : No Text #3 ID : 8 Format : UTF-8 Codec ID : S_TEXT/UTF8 Codec ID/Info : UTF-8 Plain Text Duration : 2 h 1 min Bit rate : 2 b/s Frame rate : 0.005 FPS Count of elements : 39 Stream size : 1.82 KiB (0%) Title : Forced Language : English Default : No Forced : No Text #4 ID : 9 Format : UTF-8 Codec ID : S_TEXT/UTF8 Codec ID/Info : UTF-8 Plain Text Duration : 2 h 3 min Bit rate : 24 b/s Frame rate : 0.113 FPS Count of elements : 838 Stream size : 22.2 KiB (0%) Title : Full Language : English Default : No Forced : No Text #5 ID : 10 Format : UTF-8 Codec ID : S_TEXT/UTF8 Codec ID/Info : UTF-8 Plain Text Duration : 2 h 3 min Bit rate : 30 b/s Frame rate : 0.163 FPS Count of elements : 1210 Stream size : 27.8 KiB (0%) Title : SDH Language : English Default : No Forced : No
[+] Скриншоты

Всего файлов в раздаче: 1 
The.Boy.and.the.Heron.1080p.BDRemux.AVC.TrueHD.Atmos.7.1-SOFCJ.mkv27.18 GB

Похожие раздачи по запросу - Мальчик
2024-07-13 magnet Мальчик и птица / Kimitachi Wa Dou Ikiru Ka / The Boy And The Heron (2023) BDRip 1080p от Generalfilm | D 6.62 GB ↑ 0 ↓ 0
2024-07-11 magnet Мальчик и птица / Kimitachi Wa Dou Ikiru Ka / The Boy And The Heron (2023) BDRemux 1080p | D, A 27.85 GB ↑ 0 ↓ 0
2024-07-09 magnet Мальчик и птица / Kimitachi Wa Dou Ikiru Ka / The Boy And The Heron (2023) BDRip 1080p | D 10.00 GB ↑ 0 ↓ 0
2024-07-08 magnet Мальчик и птица / Kimitachi Wa Dou Ikiru Ka / The Boy And The Heron (2023) UHD BDRemux 2160p | 4K | HDR | Dolby Vision Profile 7 | D 79.81 GB ↑ 0 ↓ 0
2024-07-08 magnet Мальчик и птица / Kimitachi Wa Dou Ikiru Ka / The Boy And The Heron (2023) BDRip-AVC от ExKinoRay | D 1.08 GB ↑ 0 ↓ 0
2024-07-08 magnet Мальчик и птица / Kimitachi Wa Dou Ikiru Ka / The Boy And The Heron (2023) BDRemux 1080p | D 27.18 GB ↑ 0 ↓ 0
2024-07-05 magnet Мальчик и птица / Kimitachi Wa Dou Ikiru Ka / The Boy And The Heron (2024) WEB-DLRip от ExKinoRay | D 1.46 GB ↑ 0 ↓ 0

Комментарии


Зарегистрируйтесь чтобы добавить комментарий
Торрент клиент
byTorrent - программа для загрузки торрент-файлов.

Скачать byTorrent.exe (1,5 МБ)

Скачать byTorrent.zip (0,6 МБ)

Поддержи torrent.by
российских рублей
(300 российских рублей это 4$)

Обратная связь rss

End game ©