↑↓torrent.by
Поиск
Логин:  Регистрация
Пароль:

Список подозреваемых / Могильник / Boneyard (2024) WEB-DL 1080p от New-Team | P

download Скачать торрент-файл   magnet Магнитная ссылка Размер: 4.90 GB Добавлен: 2024-07-07 05:00
Пиры будут получены из сети DHT
Последний сидер был замечен вчера в 23:13
Список подозреваемых / Могильник / Boneyard Год выпуска: 2024 Выпущено: США / Avail Entertainment, Busy Day Productions, Dream Syndicate, Dream Team Productions, FilmLens, One Dollar Studios, Tetrad Studios, The Film Post Жанр: боевик, триллер, драма, криминал, детектив Режиссер: Азиф Акбар / Asif Akbar В ролях: Брайан Ван Холт, Мэл Гибсон, Нора Зеетнер, Габриэль Хоф, Фифти Сент, Спайс Уильямс, Уэстон Кейдж, Майкл Сироу, Шон Патрик Брайан, Бренна Мари Нарайан О фильме: Лучшие агенты ФБР и полиция разыскивают серийного преступника, жестоко убившего 11 женщин. След удается взять только детективу Ортега, но после того, как пропадает его племянница, дело принимает еще более опасный поворот. Под подозрением находится каждый, кто ведет расследование. Продолжительность: 01:36:44 Перевод (ы): #1: Профессиональный (многоголосый, закадровый) | TVShows #2: Профессиональный (многоголосый, закадровый) | HDRezka Studio Субтитры: Русские (forced), английские Раздача от : Формат: MKV Качество: WEB-DL 1080p | AMZN Видео: MPEG-4 AVC, (2,40:1), 1920x800, 5580 Кбит/с, 23,976 fps Аудио #1: 48 kHz, AC3 Dolby Digital, 3/2 (L,C,R,l,r) + LFE ch, ~ 640 kbps | RUS | TVShows Аудио #2: 48 kHz, AC3 Dolby Digital, 3/2 (L,C,R,l,r) + LFE ch, ~ 192 kbps | RUS | HDRezka Studio Аудио #3: 48 kHz, AC3 Dolby Digital, 3/2 (L,C,R,l,r) + LFE ch, ~ 192 kbps | RUS | HDRezka Studio | 18+ Аудио #4: 48 kHz, E-AC3 Dolby Digital, 3/2 (L,C,R,l,r) + LFE ch, ~ 640 kbps | ENG |
[+] MediaInfoОбщее Уникальный идентификатор : 273566233149992533396077948833152082498 (0xCDCEF0A52133359C0ADB878F987FA242) Полное имя : D:TorrentsBoneyard.2024.1080p.AMZN_от New-Team.mkv Формат : Matroska Версия формата : Version 4 Размер файла : 4,90 Гбайт Продолжительность : 1 ч. 36 м. Общий поток : 7 247 Кбит/сек Название фильма : Boneyard.2024.1080p.AMZN_от New-Team Дата кодирования : UTC 2024-07-06 14:55:43 Программа кодирования : mkvmerge v79.0 ('Funeral Pyres') 64-bit Библиотека кодирования : libebml v1.4.4 + libmatroska v1.7.1 Видео Идентификатор : 1 Формат : AVC Формат/Информация : Advanced Video Codec Профиль формата : High@L4 Настройки формата : CABAC / 4 Ref Frames Параметр CABAC формата : Да Параметр RefFrames формата : 4 кадра Идентификатор кодека : V_MPEG4/ISO/AVC Продолжительность : 1 ч. 36 м. Вид битрейта : Постоянный Битрейт : 5 580 Кбит/сек Номинальный битрейт : 10 000 Кбит/сек Ширина : 1 920 пикселей Высота : 800 пикселей Соотношение сторон : 2,40:1 Режим частоты кадров : Постоянный Частота кадров : 23,976 (24000/1001) кадра/сек Цветовое пространство : YUV Субдискретизация насыщенности : 4:2:0 Битовая глубина : 8 бит Тип развёртки : Прогрессивная Бит/(Пиксели*Кадры) : 0.152 Размер потока : 3,77 Гбайт (77%) Язык : English Default : Да Forced : Нет Цветовой диапазон : Limited Основные цвета : BT.709 Характеристики трансфера : BT.709 Коэффициенты матрицы : BT.709 Аудио #1 Идентификатор : 2 Формат : AC-3 Формат/Информация : Audio Coding 3 Коммерческое название : Dolby Digital Идентификатор кодека : A_AC3 Продолжительность : 1 ч. 36 м. Вид битрейта : Постоянный Битрейт : 640 Кбит/сек Каналы : 6 каналов Channel layout : L R C LFE Ls Rs Частота : 48,0 КГц Частота кадров : 31,250 кадров/сек (1536 SPF) Метод сжатия : С потерями Размер потока : 443 Мбайт (9%) Заголовок : MVO - TVShows Язык : Russian Service kind : Complete Main Default : Да Forced : Нет Аудио #2 Идентификатор : 3 Формат : AC-3 Формат/Информация : Audio Coding 3 Коммерческое название : Dolby Digital Идентификатор кодека : A_AC3 Продолжительность : 1 ч. 36 м. Вид битрейта : Постоянный Битрейт : 192 Кбит/сек Каналы : 2 канала Channel layout : L R Частота : 48,0 КГц Частота кадров : 31,250 кадров/сек (1536 SPF) Метод сжатия : С потерями Размер потока : 133 Мбайт (3%) Заголовок : MVO - HDRezka Studio Язык : Russian Service kind : Complete Main Default : Нет Forced : Нет Аудио #3 Идентификатор : 4 Формат : AC-3 Формат/Информация : Audio Coding 3 Коммерческое название : Dolby Digital Идентификатор кодека : A_AC3 Продолжительность : 1 ч. 36 м. Вид битрейта : Постоянный Битрейт : 192 Кбит/сек Каналы : 2 канала Channel layout : L R Частота : 48,0 КГц Частота кадров : 31,250 кадров/сек (1536 SPF) Метод сжатия : С потерями Размер потока : 133 Мбайт (3%) Заголовок : MVO - HDRezka Studio | 18+ Язык : Russian Service kind : Complete Main Default : Нет Forced : Нет Аудио #4 Идентификатор : 5 Формат : E-AC-3 Формат/Информация : Enhanced AC-3 Коммерческое название : Dolby Digital Plus Идентификатор кодека : A_EAC3 Продолжительность : 1 ч. 36 м. Вид битрейта : Постоянный Битрейт : 640 Кбит/сек Каналы : 6 каналов Channel layout : L R C LFE Ls Rs Частота : 48,0 КГц Частота кадров : 31,250 кадров/сек (1536 SPF) Метод сжатия : С потерями Размер потока : 443 Мбайт (9%) Заголовок : Original Язык : English Service kind : Complete Main Default : Нет Forced : Нет Текст #1 Идентификатор : 6 Формат : UTF-8 Идентификатор кодека : S_TEXT/UTF8 Идентификатор кодека/Информация : UTF-8 Plain Text Продолжительность : 1 ч. 28 м. Битрейт : 0 бит/сек Count of elements : 12 Размер потока : 569 байт (0%) Заголовок : Язык : Russian Default : Да Forced : Нет Текст #2 Идентификатор : 7 Формат : UTF-8 Идентификатор кодека : S_TEXT/UTF8 Идентификатор кодека/Информация : UTF-8 Plain Text Продолжительность : 1 ч. 29 м. Битрейт : 66 бит/сек Count of elements : 1306 Размер потока : 43,9 Кбайт (0%) Заголовок : Язык : English Default : Нет Forced : Нет Текст #3 Идентификатор : 8 Формат : UTF-8 Идентификатор кодека : S_TEXT/UTF8 Идентификатор кодека/Информация : UTF-8 Plain Text Продолжительность : 1 ч. 36 м. Битрейт : 70 бит/сек Count of elements : 1539 Размер потока : 50,0 Кбайт (0%) Заголовок : Язык : English Default : Нет Forced : Нет Меню 00:00:00.000 : en:Scene 01 01:30:45.458 : en:End Credits

Всего файлов в раздаче: 1 
Boneyard.2024.1080p.AMZN_от New-Team.mkv4.90 GB

Похожие раздачи по запросу - Список
2024-07-07 magnet Список подозреваемых / Могильник / Boneyard (2024) WEB-DLRip от DoMiNo & селезень | P | TVShows 1.46 GB ↑ 0 ↓ 1
2024-07-07 magnet Список подозреваемых / Могильник / Boneyard (2024) WEB-DLRip от DoMiNo & селезень | P | HDRezka Studio 1.46 GB ↑ 1 ↓ 0
2024-07-07 magnet Список подозреваемых / Могильник / Boneyard (2024) WEB-DL 720p от селезень | P | TVShows, HDRezka Studio 2.66 GB ↑ 0 ↓ 0
2024-07-04 magnet Список подозреваемых / Могильник / Boneyard (2024) WEB-DLRip от DoMiNo & селезень | P2 | ViruseProject 1.46 GB ↑ 0 ↓ 0
2024-07-04 magnet Список подозреваемых / Могильник / Boneyard (2024) WEB-DL 1080p | ViruseProject 4.46 GB ↑ 0 ↓ 3
2023-12-21 magnet Белый список (2022) WEBRip от ELEKTRI4KA | KION 1.46 GB ↑ 0 ↓ 0
2022-07-02 magnet Список смертников / The Terminal List [S01] (2022) WEB-DL 720p | L 4К9.04 GB ↑ 0 ↓ 0

Комментарии


Зарегистрируйтесь чтобы добавить комментарий
Торрент клиент
byTorrent - программа для загрузки торрент-файлов.

Скачать byTorrent.exe (1,5 МБ)

Скачать byTorrent.zip (0,6 МБ)

Поддержи torrent.by
российских рублей
(300 российских рублей это 4$)

Обратная связь rss

End game ©