↑↓torrent.by
Поиск
Логин:  Регистрация
Пароль:

Tommy Vext - Antarctica [Deluxe Edition, 24Bit, Hi-Res] (2024) FLAC

download Скачать торрент-файл   magnet Магнитная ссылка Размер: 661.41 MB Добавлен: 2024-07-07 11:00
Пиры будут получены из сети DHT
Последний сидер был замечен 2024-07-09 14:07
Tommy Vext - Antarctica (2024) Deluxe Edition Жанр: Alternative Metal, Metalcore Издание: 2024 One A Records Источник: ссылка Продолжительность: 00:52:44 Кодек: FLAC 24/44.1 Битрейт: Lossless|WEB-DL Тип рипа: tracks Треклист: 01. Gods And Monsters 02. Until We Break 03. Panda Eyes 04. Smoking Gun 05. Terrible Things 06. Broken Crown 07. Love Is Never Violence 08. My Amends 09. Father & Son 10. Signs Of The Apocalypse 11. Children Of The State 12. We Carry On 13. I Gave It All 14. Meant To Me 15. Gods And Monsters
[+] Дополнительная информация: Томми Векст, бывший вокалист метал-группы Bad Wolves, в январе 2021 года группа Bad Wolves уволила его, не углубляясь в подробности. Однако Векст в своём Инстаграм сообщил, что настоящая причина увольнения состояла в его политических убеждениях - летом 2020 года он раскритиковал движение Black Lives Matter и встал на сторону Трампа, сказав, что он, являясь чернокожим, ни разу не подвергался расизму, а BLM - одна большая провокация для разжигания конфликтов внутри страны. Los Angeles, California https://tommyvextofficial.com/ https://tommyvext.bandcamp.com/music
[+] Отчёт Замер динамического диапазона (DR): foobar2000 2.1.5 / Замер динамического диапазона (DR) 1.1.1 Дата отчёта: 2024-07-06 22:33:21 -------------------------------------------------------------------------------- Анализ: Tommy Vext Feat. CJ McMahon / ANTARCTICA (1) Tommy Vext Feat. DJ FELMAX / ANTARCTICA (2) Tommy Vext / ANTARCTICA (3-15) -------------------------------------------------------------------------------- DR Пики RMS Продолжительность трека -------------------------------------------------------------------------------- DR4 -0.04 дБ -4.97 дБ 3:18 15-Gods And Monsters DR7 -0.21 дБ -9.95 дБ 4:08 10-Signs Of The Apocalypse DR4 -0.04 дБ -4.91 дБ 3:18 01-Gods And Monsters DR4 -0.04 дБ -5.22 дБ 3:57 02-Until We Break DR5 -0.24 дБ -6.03 дБ 3:12 03-Panda Eyes DR4 -0.03 дБ -5.59 дБ 3:41 04-Smoking Gun DR8 0.00 дБ -10.61 дБ 3:37 05-Terrible Things DR4 0.00 дБ -5.00 дБ 2:51 06-Broken Crown DR4 -0.05 дБ -6.69 дБ 3:49 07-Love Is Never Violence DR4 -0.04 дБ -5.34 дБ 3:29 08-My Amends DR4 -0.05 дБ -5.66 дБ 3:02 09-Father & Son DR5 -0.04 дБ -5.48 дБ 3:40 11-Children Of The State DR5 -0.04 дБ -6.50 дБ 3:51 12-We Carry On DR5 -0.04 дБ -5.37 дБ 3:28 13-I Gave It All DR6 0.00 дБ -8.90 дБ 3:23 14-Meant To Me -------------------------------------------------------------------------------- Количество треков: 15 Реальные значения DR: DR5 Частота: 44100 Гц Каналов: 2 Разрядность: 24 Битрейт: 1568 кбит/с Кодек: FLAC ================================================================================
[+] Отчёт Mi: Format : FLAC Format/Info : Free Lossless Audio Codec File size : 41.5 MiB Duration : 3 min 18 s Overall bit rate mode : Variable Overall bit rate : 1 757 kb/s Album : ANTARCTICA Album/Performer : Tommy Vext Part : 1 Part/Total : 1 Track name : Gods And Monsters Track name/Position : 1 Track name/Total : 15 Performer : Tommy Vext Composer : Thomas Cummings Producer : One A Records Label : One A Records Genre : Alternative Metal / Metalcore Recorded date : 2024-07-05 ISRC : QZQAY2411645 Copyright : 2024 One A Records Cover : Yes Cover type : Cover (front) Cover MIME : image/jpeg Comment : https://www.qobuz.com/gb-en/album/antarctica-tommy-vext/q4f2koekdaava INVOLVEDPEOPLE : Tommy Vext, MainArtist - Thomas Cummings, Composer ITUNESADVISORY : 1 MEDIATYPE : album UPC : 0797885139030 URL : https://www.qobuz.com/fr-fr/album/antarctica-tommy-vext/q4f2koekdaava Audio Format : FLAC Format/Info : Free Lossless Audio Codec Duration : 3 min 18 s Bit rate mode : Variable Bit rate : 1 752 kb/s Channel(s) : 2 channels Channel layout : L R Sampling rate : 44.1 kHz Bit depth : 24 bits Compression mode : Lossless Stream size : 41.4 MiB (100%) MD5 of the unencoded content : 00000000000000000000000000000000 General Complete name : C:Deemix MusicTommy Vext - 2024 - Antarctica (Deluxe Edition) FLAC (24bit-44.1kHz)�2 - Until We Break.flac Format : FLAC Format/Info : Free Lossless Audio Codec File size : 50.5 MiB Duration : 3 min 56 s Overall bit rate mode : Variable Overall bit rate : 1 788 kb/s Album : ANTARCTICA Album/Performer : Tommy Vext Part : 1 Part/Total : 1 Track name : Until We Break Track name/Position : 2 Track name/Total : 15 Performer : Tommy Vext Composer : Thomas Cummings, Max Karon & Angel Vivaldi Producer : One A Records Label : One A Records Genre : Alternative Metal / Metalcore Recorded date : 2024-07-05 ISRC : QZQAY2404843 Copyright : 2023 One A Records Cover : Yes Cover type : Cover (front) Cover MIME : image/jpeg Comment : 2024 One A Records INVOLVEDPEOPLE : Tommy Vext, MainArtist - Thomas Cummings, Composer - Max Karon, Composer - Angel Vivaldi, Composer ITUNESADVISORY : 0 MEDIATYPE : album UPC : 0797885139030 URL : https://www.qobuz.com/fr-fr/album/antarctica-tommy-vext/q4f2koekdaava Audio Format : FLAC Format/Info : Free Lossless Audio Codec Duration : 3 min 56 s Bit rate mode : Variable Bit rate : 1 783 kb/s Channel(s) : 2 channels Channel layout : L R Sampling rate : 44.1 kHz Bit depth : 24 bits Compression mode : Lossless Stream size : 50.3 MiB (100%) MD5 of the unencoded content : 00000000000000000000000000000000 General Complete name : C:Deemix MusicTommy Vext - 2024 - Antarctica (Deluxe Edition) FLAC (24bit-44.1kHz)�3 - Panda Eyes.flac Format : FLAC Format/Info : Free Lossless Audio Codec File size : 41.0 MiB Duration : 3 min 12 s Overall bit rate mode : Variable Overall bit rate : 1 791 kb/s Album : ANTARCTICA Album/Performer : Tommy Vext Part : 1 Part/Total : 1 Track name : Panda Eyes Track name/Position : 3 Track name/Total : 15 Performer : Tommy Vext Composer : Thomas Cummings, Max Karon & Angel Vivaldi Producer : One A Records Label : One A Records Genre : Alternative Metal / Metalcore Recorded date : 2024-07-05 ISRC : QZQAY2475876 Copyright : 2023 One A Records Cover : Yes Cover type : Cover (front) Cover MIME : image/jpeg Comment : Los Angeles, California INVOLVEDPEOPLE : Tommy Vext, MainArtist - Thomas Cummings, Composer - Max Karon, Composer - Angel Vivaldi, Composer ITUNESADVISORY : 0 MEDIATYPE : album UPC : 0797885139030 URL : https://www.qobuz.com/fr-fr/album/antarctica-tommy-vext/q4f2koekdaava Audio Format : FLAC Format/Info : Free Lossless Audio Codec Duration : 3 min 12 s Bit rate mode : Variable Bit rate : 1 786 kb/s Channel(s) : 2 channels Channel layout : L R Sampling rate : 44.1 kHz Bit depth : 24 bits Compression mode : Lossless Stream size : 40.9 MiB (100%) MD5 of the unencoded content : 00000000000000000000000000000000 General Complete name : C:Deemix MusicTommy Vext - 2024 - Antarctica (Deluxe Edition) FLAC (24bit-44.1kHz)�4 - Smoking Gun.flac Format : FLAC Format/Info : Free Lossless Audio Codec File size : 45.4 MiB Duration : 3 min 40 s Overall bit rate mode : Variable Overall bit rate : 1 725 kb/s Album : ANTARCTICA Album/Performer : Tommy Vext Part : 1 Part/Total : 1 Track name : Smoking Gun Track name/Position : 4 Track name/Total : 15 Performer : Tommy Vext Composer : Thomas Cummings, Josh Gilbert & Angel Vivaldi Producer : One A Records Label : One A Records Genre : Alternative Metal / Metalcore Recorded date : 2024-07-05 ISRC : QZQAY2463289 Copyright : 2023 One A Records Cover : Yes Cover type : Cover (front) Cover MIME : image/jpeg Comment : https://tommyvext.bandcamp.com/music INVOLVEDPEOPLE : Tommy Vext, MainArtist - Thomas Cummings, Composer - Josh Gilbert, Composer - Angel Vivaldi, Composer ITUNESADVISORY : 0 MEDIATYPE : album UPC : 0797885139030 URL : https://www.qobuz.com/fr-fr/album/antarctica-tommy-vext/q4f2koekdaava Audio Format : FLAC Format/Info : Free Lossless Audio Codec Duration : 3 min 40 s Bit rate mode : Variable Bit rate : 1 721 kb/s Channel(s) : 2 channels Channel layout : L R Sampling rate : 44.1 kHz Bit depth : 24 bits Compression mode : Lossless Stream size : 45.3 MiB (100%) MD5 of the unencoded content : 00000000000000000000000000000000 General Complete name : C:Deemix MusicTommy Vext - 2024 - Antarctica (Deluxe Edition) FLAC (24bit-44.1kHz)�5 - Terrible Things.flac Format : FLAC Format/Info : Free Lossless Audio Codec File size : 41.5 MiB Duration : 3 min 36 s Overall bit rate mode : Variable Overall bit rate : 1 606 kb/s Album : ANTARCTICA Album/Performer : Tommy Vext Part : 1 Part/Total : 1 Track name : Terrible Things Track name/Position : 5 Track name/Total : 15 Performer : Tommy Vext Composer : Thomas Cummings Producer : One A Records Label : One A Records Genre : Alternative Metal / Metalcore Recorded date : 2024-07-05 ISRC : QZSYP2397720 Copyright : 2023 One A Records Cover : Yes Cover type : Cover (front) Cover MIME : image/jpeg Comment : https://youtu.be/pl7qTRdp7hI INVOLVEDPEOPLE : Tommy Vext, MainArtist - Thomas Cummings, Composer ITUNESADVISORY : 0 MEDIATYPE : album UPC : 0797885139030 URL : https://www.qobuz.com/fr-fr/album/antarctica-tommy-vext/q4f2koekdaava Audio Format : FLAC Format/Info : Free Lossless Audio Codec Duration : 3 min 36 s Bit rate mode : Variable Bit rate : 1 602 kb/s Channel(s) : 2 channels Channel layout : L R Sampling rate : 44.1 kHz Bit depth : 24 bits Compression mode : Lossless Stream size : 41.4 MiB (100%) MD5 of the unencoded content : 00000000000000000000000000000000 General Complete name : C:Deemix MusicTommy Vext - 2024 - Antarctica (Deluxe Edition) FLAC (24bit-44.1kHz)�6 - Broken Crown.flac Format : FLAC Format/Info : Free Lossless Audio Codec File size : 36.8 MiB Duration : 2 min 50 s Overall bit rate mode : Variable Overall bit rate : 1 808 kb/s Album : ANTARCTICA Album/Performer : Tommy Vext Part : 1 Part/Total : 1 Track name : Broken Crown Track name/Position : 6 Track name/Total : 15 Performer : Tommy Vext Composer : Thomas Cummings Producer : One A Records Label : One A Records Genre : Alternative Metal / Metalcore Recorded date : 2024-07-05 ISRC : QZS7J2433964 Copyright : 2024 One A Records Cover : Yes Cover type : Cover (front) Cover MIME : image/jpeg Comment : https://tommyvextofficial.com/ INVOLVEDPEOPLE : Tommy Vext, MainArtist - Thomas Cummings, Composer ITUNESADVISORY : 0 MEDIATYPE : album UPC : 0797885139030 URL : https://www.qobuz.com/fr-fr/album/antarctica-tommy-vext/q4f2koekdaava Audio Format : FLAC Format/Info : Free Lossless Audio Codec Duration : 2 min 50 s Bit rate mode : Variable Bit rate : 1 802 kb/s Channel(s) : 2 channels Channel layout : L R Sampling rate : 44.1 kHz Bit depth : 24 bits Compression mode : Lossless Stream size : 36.7 MiB (100%) MD5 of the unencoded content : 00000000000000000000000000000000 General Complete name : C:Deemix MusicTommy Vext - 2024 - Antarctica (Deluxe Edition) FLAC (24bit-44.1kHz)�7 - Love Is Never Violence.flac Format : FLAC Format/Info : Free Lossless Audio Codec File size : 47.3 MiB Duration : 3 min 49 s Overall bit rate mode : Variable Overall bit rate : 1 732 kb/s Album : ANTARCTICA Album/Performer : Tommy Vext Part : 1 Part/Total : 1 Track name : Love Is Never Violence Track name/Position : 7 Track name/Total : 15 Performer : Tommy Vext Composer : Thomas Cummings, Angel Vivaldi & Drew Fauk Producer : One A Records Label : One A Records Genre : Alternative Metal / Metalcore Recorded date : 2024-07-05 ISRC : QZQAY2425875 Copyright : 2023 One A Records Cover : Yes Cover type : Cover (front) Cover MIME : image/jpeg INVOLVEDPEOPLE : Tommy Vext, MainArtist - Thomas Cummings, Composer - Angel Vivaldi, Composer - Drew Fauk, Composer ITUNESADVISORY : 0 MEDIATYPE : album UPC : 0797885139030 URL : https://www.qobuz.com/fr-fr/album/antarctica-tommy-vext/q4f2koekdaava Audio Format : FLAC Format/Info : Free Lossless Audio Codec Duration : 3 min 49 s Bit rate mode : Variable Bit rate : 1 728 kb/s Channel(s) : 2 channels Channel layout : L R Sampling rate : 44.1 kHz Bit depth : 24 bits Compression mode : Lossless Stream size : 47.2 MiB (100%) MD5 of the unencoded content : 00000000000000000000000000000000 General Complete name : C:Deemix MusicTommy Vext - 2024 - Antarctica (Deluxe Edition) FLAC (24bit-44.1kHz)�8 - My Amends.flac Format : FLAC Format/Info : Free Lossless Audio Codec File size : 44.1 MiB Duration : 3 min 28 s Overall bit rate mode : Variable Overall bit rate : 1 771 kb/s Album : ANTARCTICA Album/Performer : Tommy Vext Part : 1 Part/Total : 1 Track name : My Amends Track name/Position : 8 Track name/Total : 15 Performer : Tommy Vext Composer : Thomas Cummings, Angel Vivaldi, Dio Britto & Erik Tisinger Producer : One A Records Label : One A Records Genre : Alternative Metal / Metalcore Recorded date : 2024-07-05 ISRC : QZQAY2450843 Copyright : 2023 One A Records Cover : Yes Cover type : Cover (front) Cover MIME : image/jpeg INVOLVEDPEOPLE : Tommy Vext, MainArtist - Thomas Cummings, Composer - Angel Vivaldi, Composer - Dio Britto, Composer - Erik Tisinger, Composer ITUNESADVISORY : 0 MEDIATYPE : album UPC : 0797885139030 URL : https://www.qobuz.com/fr-fr/album/antarctica-tommy-vext/q4f2koekdaava Audio Format : FLAC Format/Info : Free Lossless Audio Codec Duration : 3 min 28 s Bit rate mode : Variable Bit rate : 1 766 kb/s Channel(s) : 2 channels Channel layout : L R Sampling rate : 44.1 kHz Bit depth : 24 bits Compression mode : Lossless Stream size : 43.9 MiB (100%) MD5 of the unencoded content : 00000000000000000000000000000000 General Complete name : C:Deemix MusicTommy Vext - 2024 - Antarctica (Deluxe Edition) FLAC (24bit-44.1kHz)�9 - Father & Son.flac Format : FLAC Format/Info : Free Lossless Audio Codec File size : 37.9 MiB Duration : 3 min 2 s Overall bit rate mode : Variable Overall bit rate : 1 745 kb/s Album : ANTARCTICA Album/Performer : Tommy Vext Part : 1 Part/Total : 1 Track name : Father & Son Track name/Position : 9 Track name/Total : 15 Performer : Tommy Vext Composer : Thomas Morrision Producer : One A Records Label : One A Records Genre : Alternative Metal / Metalcore Recorded date : 2024-07-05 ISRC : QZQAY2414727 Copyright : 2023 One A Records Cover : Yes Cover type : Cover (front) Cover MIME : image/jpeg INVOLVEDPEOPLE : Tommy Vext, MainArtist - Thomas Morrision, Composer ITUNESADVISORY : 0 MEDIATYPE : album UPC : 0797885139030 URL : https://www.qobuz.com/fr-fr/album/antarctica-tommy-vext/q4f2koekdaava Audio Format : FLAC Format/Info : Free Lossless Audio Codec Duration : 3 min 2 s Bit rate mode : Variable Bit rate : 1 739 kb/s Channel(s) : 2 channels Channel layout : L R Sampling rate : 44.1 kHz Bit depth : 24 bits Compression mode : Lossless Stream size : 37.8 MiB (100%) MD5 of the unencoded content : 00000000000000000000000000000000 General Complete name : C:Deemix MusicTommy Vext - 2024 - Antarctica (Deluxe Edition) FLAC (24bit-44.1kHz)10 - Signs Of The Apocalypse.flac Format : FLAC Format/Info : Free Lossless Audio Codec File size : 45.7 MiB Duration : 4 min 8 s Overall bit rate mode : Variable Overall bit rate : 1 544 kb/s Album : ANTARCTICA Album/Performer : Tommy Vext Part : 1 Part/Total : 1 Track name : Signs Of The Apocalypse Track name/Position : 10 Track name/Total : 15 Performer : Tommy Vext Feat. DJ FELMAX Composer : Thomas Cummings Producer : One A Records Label : One A Records Genre : Alternative Metal / Metalcore Recorded date : 2024-07-05 ISRC : QZTLA2439779 Copyright : 2024 One A Records Cover : Yes Cover type : Cover (front) Cover MIME : image/jpeg INVOLVEDPEOPLE : Tommy Vext, MainArtist - Thomas Cummings, Composer - DJ FELMAX, FeaturedArtist ITUNESADVISORY : 0 MEDIATYPE : album UPC : 0797885139030 URL : https://www.qobuz.com/fr-fr/album/antarctica-tommy-vext/q4f2koekdaava Audio Format : FLAC Format/Info : Free Lossless Audio Codec Duration : 4 min 8 s Bit rate mode : Variable Bit rate : 1 539 kb/s Channel(s) : 2 channels Channel layout : L R Sampling rate : 44.1 kHz Bit depth : 24 bits Compression mode : Lossless Stream size : 45.6 MiB (100%) MD5 of the unencoded content : 00000000000000000000000000000000 General Complete name : C:Deemix MusicTommy Vext - 2024 - Antarctica (Deluxe Edition) FLAC (24bit-44.1kHz)11 - Children Of The State.flac Format : FLAC Format/Info : Free Lossless Audio Codec File size : 46.5 MiB Duration : 3 min 39 s Overall bit rate mode : Variable Overall bit rate : 1 776 kb/s Album : ANTARCTICA Album/Performer : Tommy Vext Part : 1 Part/Total : 1 Track name : Children Of The State Track name/Position : 11 Track name/Total : 15 Performer : Tommy Vext Composer : Thomas Cummings, Angel Vivaldi, Dio Britto & Erik Tisinger Producer : One A Records Label : One A Records Genre : Alternative Metal / Metalcore Recorded date : 2024-07-05 ISRC : QZQAY2417939 Copyright : 2023 One A Records Cover : Yes Cover type : Cover (front) Cover MIME : image/jpeg INVOLVEDPEOPLE : Tommy Vext, MainArtist - Thomas Cummings, Composer - Angel Vivaldi, Composer - Dio Britto, Composer - Erik Tisinger, Composer ITUNESADVISORY : 0 MEDIATYPE : album UPC : 0797885139030 URL : https://www.qobuz.com/fr-fr/album/antarctica-tommy-vext/q4f2koekdaava Audio Format : FLAC Format/Info : Free Lossless Audio Codec Duration : 3 min 39 s Bit rate mode : Variable Bit rate : 1 771 kb/s Channel(s) : 2 channels Channel layout : L R Sampling rate : 44.1 kHz Bit depth : 24 bits Compression mode : Lossless Stream size : 46.4 MiB (100%) MD5 of the unencoded content : 00000000000000000000000000000000 General Complete name : C:Deemix MusicTommy Vext - 2024 - Antarctica (Deluxe Edition) FLAC (24bit-44.1kHz)12 - We Carry On.flac Format : FLAC Format/Info : Free Lossless Audio Codec File size : 47.1 MiB Duration : 3 min 51 s Overall bit rate mode : Variable Overall bit rate : 1 709 kb/s Album : ANTARCTICA Album/Performer : Tommy Vext Part : 1 Part/Total : 1 Track name : We Carry On Track name/Position : 12 Track name/Total : 15 Performer : Tommy Vext Composer : Andrew Jacobs, Thomas Cummings & Angel Vivaldi Producer : One A Records Label : One A Records Genre : Alternative Metal / Metalcore Recorded date : 2024-07-05 ISRC : QZQAY2484576 Copyright : 2023 One A Records Cover : Yes Cover type : Cover (front) Cover MIME : image/jpeg INVOLVEDPEOPLE : Andrew Jacobs, Composer - Tommy Vext, MainArtist - Thomas Cummings, Composer - Angel Vivaldi, Composer ITUNESADVISORY : 0 MEDIATYPE : album UPC : 0797885139030 URL : https://www.qobuz.com/fr-fr/album/antarctica-tommy-vext/q4f2koekdaava Audio Format : FLAC Format/Info : Free Lossless Audio Codec Duration : 3 min 51 s Bit rate mode : Variable Bit rate : 1 705 kb/s Channel(s) : 2 channels Channel layout : L R Sampling rate : 44.1 kHz Bit depth : 24 bits Compression mode : Lossless Stream size : 47.0 MiB (100%) MD5 of the unencoded content : 00000000000000000000000000000000 General Complete name : C:Deemix MusicTommy Vext - 2024 - Antarctica (Deluxe Edition) FLAC (24bit-44.1kHz)13 - I Gave It All.flac Format : FLAC Format/Info : Free Lossless Audio Codec File size : 43.9 MiB Duration : 3 min 28 s Overall bit rate mode : Variable Overall bit rate : 1 767 kb/s Album : ANTARCTICA Album/Performer : Tommy Vext Part : 1 Part/Total : 1 Track name : I Gave It All Track name/Position : 13 Track name/Total : 15 Performer : Tommy Vext Composer : Thomas Cummings, Angel Vivaldi, Dio Britto & Erik Tisinger Producer : One A Records Label : One A Records Genre : Alternative Metal / Metalcore Recorded date : 2024-07-05 ISRC : QZQAY2426865 Copyright : 2023 One A Records Cover : Yes Cover type : Cover (front) Cover MIME : image/jpeg INVOLVEDPEOPLE : Tommy Vext, MainArtist - Thomas Cummings, Composer - Angel Vivaldi, Composer - Dio Britto, Composer - Erik Tisinger, Composer ITUNESADVISORY : 0 MEDIATYPE : album UPC : 0797885139030 URL : https://www.qobuz.com/fr-fr/album/antarctica-tommy-vext/q4f2koekdaava Audio Format : FLAC Format/Info : Free Lossless Audio Codec Duration : 3 min 28 s Bit rate mode : Variable Bit rate : 1 762 kb/s Channel(s) : 2 channels Channel layout : L R Sampling rate : 44.1 kHz Bit depth : 24 bits Compression mode : Lossless Stream size : 43.8 MiB (100%) MD5 of the unencoded content : 00000000000000000000000000000000 General Complete name : C:Deemix MusicTommy Vext - 2024 - Antarctica (Deluxe Edition) FLAC (24bit-44.1kHz)14 - Meant To Me.flac Format : FLAC Format/Info : Free Lossless Audio Codec File size : 38.0 MiB Duration : 3 min 22 s Overall bit rate mode : Variable Overall bit rate : 1 573 kb/s Album : ANTARCTICA Album/Performer : Tommy Vext Part : 1 Part/Total : 1 Track name : Meant To Me Track name/Position : 14 Track name/Total : 15 Performer : Tommy Vext Composer : Thomas Cummings Producer : One A Records Label : One A Records Genre : Alternative Metal / Metalcore Recorded date : 2024-07-05 ISRC : QZQAY2434665 Copyright : 2023 One A Records Cover : Yes Cover type : Cover (front) Cover MIME : image/jpeg INVOLVEDPEOPLE : Tommy Vext, MainArtist - Thomas Cummings, Composer ITUNESADVISORY : 0 MEDIATYPE : album UPC : 0797885139030 URL : https://www.qobuz.com/fr-fr/album/antarctica-tommy-vext/q4f2koekdaava Audio Format : FLAC Format/Info : Free Lossless Audio Codec Duration : 3 min 22 s Bit rate mode : Variable Bit rate : 1 568 kb/s Channel(s) : 2 channels Channel layout : L R Sampling rate : 44.1 kHz Bit depth : 24 bits Compression mode : Lossless Stream size : 37.9 MiB (100%) MD5 of the unencoded content : 00000000000000000000000000000000 General Complete name : C:Deemix MusicTommy Vext - 2024 - Antarctica (Deluxe Edition) FLAC (24bit-44.1kHz)15 - Gods And Monsters.flac Format : FLAC Format/Info : Free Lossless Audio Codec File size : 41.6 MiB Duration : 3 min 18 s Overall bit rate mode : Variable Overall bit rate : 1 759 kb/s Album : ANTARCTICA Album/Performer : Tommy Vext Part : 1 Part/Total : 1 Track name : Gods And Monsters Track name/Position : 15 Track name/Total : 15 Performer : Tommy Vext Feat. CJ McMahon Composer : Thomas Cummmings Producer : One A Records Label : One A Records Genre : Alternative Metal / Metalcore Recorded date : 2024-07-05 ISRC : QZQAY2450903 Copyright : 2024 One A Records Cover : Yes Cover type : Cover (front) Cover MIME : image/jpeg INVOLVEDPEOPLE : Tommy Vext, MainArtist - CJ McMahon, FeaturedArtist - Thomas Cummmings, Composer ITUNESADVISORY : 1 MEDIATYPE : album UPC : 0797885139030 URL : https://www.qobuz.com/fr-fr/album/antarctica-tommy-vext/q4f2koekdaava Audio Format : FLAC Format/Info : Free Lossless Audio Codec Duration : 3 min 18 s Bit rate mode : Variable Bit rate : 1 754 kb/s Channel(s) : 2 channels Channel layout : L R Sampling rate : 44.1 kHz Bit depth : 24 bits Compression mode : Lossless Stream size : 41.5 MiB (100%) MD5 of the unencoded content : 00000000000000000000000000000000 General Complete name : C:Deemix MusicTommy Vext - 2024 - Antarctica (Deluxe Edition) FLAC (24bit-44.1kHz)Antarctica.jpg Format : JPEG File size : 359 KiB Image Format : JPEG Width : 1 200 pixels Height : 713 pixels Color space : RGB Bit depth : 8 bits Compression mode : Lossy Stream size : 359 KiB (100%) General Complete name : C:Deemix MusicTommy Vext - 2024 - Antarctica (Deluxe Edition) FLAC (24bit-44.1kHz)Cover.jpg Format : JPEG File size : 12.2 MiB Image Format : JPEG Width : 3 000 pixels Height : 3 000 pixels Color space : YUV Chroma subsampling : 4:4:4 Bit depth : 8 bits Compression mode : Lossy Stream size : 12.2 MiB (100%) ColorSpace_ICC : RGB
https://youtu.be/pl7qTRdp7hI

Всего файлов в раздаче: 17 
01 - Gods And Monsters.flac41.50 MB
02 - Until We Break.flac50.47 MB
03 - Panda Eyes.flac41.03 MB
04 - Smoking Gun.flac45.43 MB
05 - Terrible Things.flac41.48 MB
06 - Broken Crown.flac36.78 MB
07 - Love Is Never Violence.flac47.34 MB
08 - My Amends.flac44.07 MB
09 - Father & Son.flac37.89 MB
10 - Signs Of The Apocalypse.flac45.68 MB
Показать все файлы

Комментарии


Зарегистрируйтесь чтобы добавить комментарий
Торрент клиент
byTorrent - программа для загрузки торрент-файлов.

Скачать byTorrent.exe (1,5 МБ)

Скачать byTorrent.zip (0,6 МБ)

Поддержи torrent.by
российских рублей
(300 российских рублей это 4$)

Обратная связь rss

End game ©