↑↓torrent.by
Поиск
Логин:  Регистрация
Пароль:

Тяга убивать / Склонность к убийству / Homicidal (1961) BDRip 720p от liosaa | L1

download Скачать торрент-файл   magnet Магнитная ссылка Размер: 4.04 GB Добавлен: 2024-07-07 11:00
Пиры будут получены из сети DHT
Последний сидер был замечен 2024-07-07 11:00
Информация о фильме Название: Тяга убивать / Склонность к убийству Оригинальное название: Homicidal Год выхода: 1961 Жанр: триллер, детектив, ужасы Режиссер: Уильям Касл / William Castle В ролях: Гленн Корбетт, Патрисия Бреслин, Эуджения Леонтович, Алан Банс, Ричард Руст, Джеймс Уэстерфилд, Гилберт Грин, Джоан Маршалл О фильме: Таинственная женщина по имени Эмили нанимает швейцара из отеля, в котором остановилась, чтобы тот заключил с ней фиктивный брак. Ночью они едут к мировому судье, но во время церемонии бракосочетания Эмили вонзает в живот судьи острый скальпель и скрывается в ночи. Полиция начинает расследование и выходит на хозяйку цветочного магазина Мириам Вебстер, брат которой скоро унаследует огромное состояние... Как известно, Уильям Касл превращал выход каждого своего фильма в шоу: премьера очередного проекта сопровождалась бурной рекламной кампанией, да и в самих картинах хватало эксцентричных приёмов. Например в этом культовом хорроре, чуть ли не лучшем у режиссёра, – соперничающим по драйву и изобретательности с «Психозом» Хичкока, который вышел годом ранее, – пугающее ноу-хау Касла называлось Fright Break. В кульминационной сцене, когда главная героиня ночью приближалась к жуткому зданию, где скрывался маньяк, на экране появлялся секундомер – и зрителям объявляли о том, что любой желающий за 45 секунд может покинуть сеанс с полным возмещением стоимости билета. В каждом зале был оборудован так называемый «Уголок труса», в котором стояла медсестра: она измеряла давление у всех, кто сомневался в своём желании досмотреть фильм до конца – после чего те действительно могли отправляться на все четыре стороны, получив свои деньги обратно. Проверьте себя прямо сейчас и узнайте, сможете ли вы сами досидеть до финальной развязки!.. Страна: США Продолжительность: 01:27:23 Перевод: Одноголосый закадровый liosaa Файл Кодек: x264 Качество: BDRip 720p Видео: 1280x720 (1,85:1), 4908 kbps, 23.976 fps Звук: 48 kHz, AC3 DD , 2.0 ch , 192 kbps (рус) liosaa 48 kHz, FLAC 24b, 1.0 ch, 679 kbps (рус) liosaa 48 kHz, AC3 DD , 2.0 ch , 192 kbps (рус) den904 48 kHz, FLAC 24b, 1.0 ch, 646 kbps (eng) Субтитры: русские liosaa*2024, английские
[+] MIФормат : Matroska Версия формата : Version 4 Размер файла : 4,04 Гбайт Продолжительность : 1 ч. 27 м. Режим общего битрейта : Переменный Общий поток : 6620 Кбит/сек Дата кодирования : UTC 2024-06-27 18:13:13 Программа кодирования : mkvmerge v22.0.0 ('At The End Of The World') 64-bit Библиотека кодирования : libebml v1.3.5 + libmatroska v1.4.8 Видео Идентификатор : 1 Формат : AVC Формат/Информация : Advanced Video Codec Профиль формата : High@L4.1 Настройки формата : CABAC / 5 Ref Frames Параметр CABAC формата : Да Параметр RefFrames формата : 5 кадров Идентификатор кодека : V_MPEG4/ISO/AVC Продолжительность : 1 ч. 27 м. Битрейт : 4908 Кбит/сек Ширина : 1280 пикселей Высота : 720 пикселей Соотношение сторон : 16:9 Режим частоты кадров : Постоянный Частота кадров : 23,976 (24000/1001) кадра/сек Цветовое пространство : YUV Субдискретизация насыщенности : 4:2:0 Битовая глубина : 8 бит Тип развёртки : Прогрессивная Бит/(Пиксели*Кадры) : 0.222 Размер потока : 3,00 Гбайт (74%) Библиотека кодирования : x264 core 148 r2705 3f5ed56 Настройки программы : cabac=1 / ref=5 / deblock=1:-3:-3 / analyse=0x3:0x113 / me=umh / subme=8 / psy=1 / psy_rd=1.00:0.25 / mixed_ref=1 / me_range=24 / chroma_me=1 / trellis=1 / 8x8dct=1 / cqm=0 / deadzone=21,11 / fast_pskip=1 / chroma_qp_offset=-4 / threads=22 / lookahead_threads=3 / sliced_threads=0 / nr=0 / decimate=1 / interlaced=0 / bluray_compat=0 / constrained_intra=0 / bframes=3 / b_pyramid=2 / b_adapt=2 / b_bias=0 / direct=3 / weightb=1 / open_gop=0 / weightp=2 / keyint=240 / keyint_min=24 / scenecut=40 / intra_refresh=0 / rc_lookahead=50 / rc=2pass / mbtree=1 / bitrate=4908 / ratetol=1.0 / qcomp=0.60 / qpmin=0 / qpmax=69 / qpstep=4 / cplxblur=20.0 / qblur=0.5 / ip_ratio=1.40 / aq=1:0.50 Default : Да Forced : Нет Аудио #1 Идентификатор : 2 Формат : AC-3 Формат/Информация : Audio Coding 3 Коммерческое название : Dolby Digital Идентификатор кодека : A_AC3 Продолжительность : 1 ч. 27 м. Вид битрейта : Постоянный Битрейт : 192 Кбит/сек Каналы : 2 канала ChannelLayout : L R Частота : 48,0 КГц Частота кадров : 31,250 кадров/сек (1536 SPF) Битовая глубина : 16 бит Метод сжатия : С потерями Размер потока : 120 Мбайт (3%) Заголовок : VO *liosaa* DD 2/0 Язык : Russian ServiceKind/Strin : Complete Main Default : Да Forced : Нет Аудио #2 Идентификатор : 3 Формат : FLAC Формат/Информация : Free Lossless Audio Codec Идентификатор кодека : A_FLAC Продолжительность : 1 ч. 27 м. Вид битрейта : Переменный Битрейт : 679 Кбит/сек Каналы : 1 канал ChannelLayout : C Частота : 48,0 КГц Частота кадров : 11,719 кадров/сек (4096 SPF) Битовая глубина : 24 бит Метод сжатия : Без потерь Размер потока : 425 Мбайт (10%) Заголовок : VO *liosaa* FLAC mono Библиотека кодирования : libFLAC 1.3.0 (UTC 2013-05-26) Язык : Russian Default : Нет Forced : Нет Аудио #3 Идентификатор : 4 Формат : AC-3 Формат/Информация : Audio Coding 3 Коммерческое название : Dolby Digital Идентификатор кодека : A_AC3 Продолжительность : 1 ч. 27 м. Вид битрейта : Постоянный Битрейт : 192 Кбит/сек Каналы : 2 канала ChannelLayout : L R Частота : 48,0 КГц Частота кадров : 31,250 кадров/сек (1536 SPF) Битовая глубина : 16 бит Метод сжатия : С потерями Размер потока : 120 Мбайт (3%) Заголовок : VO den904 Язык : Russian ServiceKind/Strin : Complete Main Default : Нет Forced : Нет Аудио #4 Идентификатор : 5 Формат : FLAC Формат/Информация : Free Lossless Audio Codec Идентификатор кодека : A_FLAC Продолжительность : 1 ч. 27 м. Вид битрейта : Переменный Битрейт : 646 Кбит/сек Каналы : 1 канал ChannelLayout : C Частота : 48,0 КГц Частота кадров : 11,719 кадров/сек (4096 SPF) Битовая глубина : 24 бит Метод сжатия : Без потерь Размер потока : 404 Мбайт (10%) Заголовок : Original FLAC mono Библиотека кодирования : libFLAC 1.3.0 (UTC 2013-05-26) Язык : English Default : Нет Forced : Нет Текст #1 Идентификатор : 6 Формат : UTF-8 Идентификатор кодека : S_TEXT/UTF8 Идентификатор кодека/Информация : UTF-8 Plain Text Продолжительность : 1 ч. 27 м. Битрейт : 78 бит/сек ElementCount : 829 Размер потока : 49,8 Кбайт (0%) Заголовок : *liosaa* 2024 Язык : Russian Default : Нет Forced : Нет Текст #2 Идентификатор : 7 Формат : UTF-8 Идентификатор кодека : S_TEXT/UTF8 Идентификатор кодека/Информация : UTF-8 Plain Text Продолжительность : 1 ч. 26 м. Битрейт : 46 бит/сек ElementCount : 795 Размер потока : 29,4 Кбайт (0%) Язык : English Default : Нет Forced : Нет Меню 00:00:00.000 : :Chapter 1 00:08:19.666 : :Chapter 2 00:17:04.232 : :Chapter 3 00:28:19.865 : :Chapter 4 00:36:45.995 : :Chapter 5 00:45:54.293 : :Chapter 6 00:53:14.733 : :Chapter 7 01:03:49.701 : :Chapter 8 01:11:59.065 : :Chapter 9 01:16:24.288 : :Chapter 10
[+] Скриншоты
Релиз от: liosaa

Всего файлов в раздаче: 1 
HOMICIDAL.1961.BDRip.720p.x264.RUS.liosaa.mkv4.04 GB

Похожие раздачи по запросу - Тяга
2024-07-07 magnet Тяга убивать / Склонность к убийству / Homicidal (1961) BDRip от liosaa | L1 1.47 GB ↑ 0 ↓ 0

Комментарии


Зарегистрируйтесь чтобы добавить комментарий
Торрент клиент
byTorrent - программа для загрузки торрент-файлов.

Скачать byTorrent.exe (1,5 МБ)

Скачать byTorrent.zip (0,6 МБ)

Поддержи torrent.by
российских рублей
(300 российских рублей это 4$)

Обратная связь rss

End game ©