↑↓torrent.by
Поиск
Логин:  Регистрация
Пароль:

Enter Shikari - Dancing On The Frontline [24Bit, Hi-Res] (2024) FLAC

download Скачать торрент-файл   magnet Магнитная ссылка Размер: 451.56 MB Добавлен: 2024-07-07 11:00
Пиры будут получены из сети DHT
Последний сидер был замечен 2024-07-11 21:57
Enter Shikari - Dancing On The Frontline (2024) Жанр: Trancecore, Electronic Издание: 2024 Enter Shikari Limited under exclusive license to So Recordings / Silva Screen Records Limited Источник: ссылка Продолжительность: 00:36:20 Кодек: FLAC 24/48 Битрейт: Lossless|WEB-DL Тип рипа: tracks Треклист: 01. Enter Shikari - goldfĭsh ~ (Shikari Sound System remix) (3:02) 02. Enter Shikari - Bloodshot (Shikari Sound System remix) (2:47) 03. Enter Shikari, WARGASM (UK) - The Void Stares Back (3:51) 04. Enter Shikari, Cody Frost - Bull (3:11) 05. Enter Shikari, Aviva - STRANGERS (3:43) 06. Enter Shikari, Jason Aalon Butler, FEVER 333 - Losing My Grip (2:48) 07. Enter Shikari - It Hurts (BBC Radio One Future Sounds session version) (3:23) 08. Enter Shikari, Cody Frost - Bull (BBC Radio One Future Sounds session version) (3:36) 09. Enter Shikari - (pls) set me on fire (BBC Radio One Rock Show session version) (3:13) 10. Enter Shikari - A Kiss For The Whole World x (BBC Radio One Rock Show session version) (3:27) 11. Enter Shikari - Bloodshot (BBC Radio One Rock Show session version) (3:25)
[+] Отчёт DR: foobar2000 1.6.12 / Замер динамического диапазона (DR) 1.1.1 Дата отчёта: 2024-07-05 15:28:51 -------------------------------------------------------------------------------- Анализ: Enter Shikari, Aviva / Dancing On The Frontline (1) Enter Shikari, Cody Frost / Dancing On The Frontline (2-3) Enter Shikari, Jason Aalon Butler, FEVER 333 / Dancing On The Frontline (4) Enter Shikari, WARGASM (UK) / Dancing On The Frontline (5) Enter Shikari / Dancing On The Frontline (6-11) -------------------------------------------------------------------------------- DR Пики RMS Продолжительность трека -------------------------------------------------------------------------------- DR6 -0.08 дБ -8.49 дБ 3:43 ?-STRANGERS DR5 -0.20 дБ -7.77 дБ 3:11 ?-Bull DR5 -0.20 дБ -6.88 дБ 3:36 ?-Bull (BBC Radio One Future Sounds session version) DR5 -0.20 дБ -7.69 дБ 2:48 ?-Losing My Grip DR5 -0.30 дБ -7.12 дБ 3:51 ?-The Void Stares Back DR4 -0.20 дБ -6.87 дБ 3:02 ?-goldfĭsh ~ (Shikari Sound System remix) DR5 -0.20 дБ -7.05 дБ 2:47 ?-Bloodshot (Shikari Sound System remix) DR4 -0.20 дБ -6.26 дБ 3:23 ?-It Hurts (BBC Radio One Future Sounds session version) DR4 -0.20 дБ -5.67 дБ 3:13 ?-(pls) set me on fire (BBC Radio One Rock Show session version) DR5 -0.20 дБ -7.16 дБ 3:27 ?-A Kiss For The Whole World x (BBC Radio One Rock Show session version) DR4 -0.20 дБ -6.69 дБ 3:25 ?-Bloodshot (BBC Radio One Rock Show session version) -------------------------------------------------------------------------------- Количество треков: 11 Реальные значения DR: DR5 Частота: 44100 Гц Каналов: 2 Разрядность: 24 Битрейт: 1712 кбит/с Кодек: FLAC ================================================================================

Всего файлов в раздаче: 13 
01 - goldfĭsh ~ (Shikari Sound System remix).flac38.79 MB
02 - Bloodshot (Shikari Sound System remix).flac35.11 MB
03 - The Void Stares Back.flac48.14 MB
04 - Bull.flac39.18 MB
05 - STRANGERS.flac45.21 MB
06 - Losing My Grip.flac34.94 MB
07 - It Hurts (BBC Radio One Future Sounds session version).flac40.81 MB
08 - Bull (BBC Radio One Future Sounds session version).flac43.34 MB
09 - (pls) set me on fire (BBC Radio One Rock Show session version).flac39.25 MB
10 - A Kiss For The Whole World x (BBC Radio One Rock Show session version).flac40.92 MB
Показать все файлы

Комментарии


Зарегистрируйтесь чтобы добавить комментарий
Торрент клиент
byTorrent - программа для загрузки торрент-файлов.

Скачать byTorrent.exe (1,5 МБ)

Скачать byTorrent.zip (0,6 МБ)

Поддержи torrent.by
российских рублей
(300 российских рублей это 4$)

Обратная связь rss

End game ©