↑↓torrent.by
Поиск
Логин:  Регистрация
Пароль:

Fink - Beauty In Your Wake [24Bit, Hi-Res] (2024) FLAC

download Скачать торрент-файл   magnet Магнитная ссылка Размер: 553.68 MB Добавлен: 2024-07-07 11:00
Пиры будут получены из сети DHT
Последний сидер был замечен 2024-07-08 19:03
Fink - Beauty In Your Wake (2024) Жанр: Indie-Folk, Indie-Pop, Blues Издание: 2024 R'COUP'D Источник: ссылка Продолжительность: 00:48:36 Кодек: FLAC 24/48 Битрейт: Lossless|WEB-DL Тип рипа: tracks Fink представляет новый, восьмой в дискографии полноформатный альбом «Веаutу In Yоur Wаkе», первую новую пластинку за три года с момента выхода «IIUII». Альбом состоит из десяти композиций, записанных в течение месяца с продюсером Сэмом Океллом, а также его многолетними коллегами по группе Тимом Торнтоном (барабаны и гитара) и Гаем Уиттакером (бас). / Fink (настоящее имя — Фин Гринолл) — автор песен, продюсер, музыкант и ди-джей из английского города Брайтона. Его первый альбом, «Frеsh Рrоduсе», появился на свет в 2001 году на Ninjа Тunе и полностью соответствовал канонам лейбла, представляя собой добротный dоwntеmро образца начала века. Признание широкой аудитории пришло к Фину в 2006 году, вместе с выходом его второго альбома «Вisсuits Fоr Вrеаkfаst», благодаря своему новому, уникальному стилю выделившего музыканта из плеяды себе подобных. Сегодняшний стиль Fink'а — коктейль из классического блюзового вокала, современной электроники, элементов трип-хопа, фолка и инди. Несмотря на то, что в последнее время музыка Fink'а приближена скорее к року, чем к электронике, он продолжает заниматься диджеингом под псевдонимом SidеShоw на Will Sаul's Simрlе Rесоrds, где имеет контракт на шесть альбомов." Треклист: 01. What Would You Call Yourself 02. The Only Thing That Matters 03. Be Forever Like A Curse 04. It's Like You Ain't Mine No More 05. Follow You Down 06. I Don't See You As The Others Do 07. One Last Gift 08. Don't Forget To Leave Well 09. So We Find Ourselves 10. When I Turn This Corner
[+] Отчёт Замер динамического диапазона (DR): foobar2000 2.1.5 / Замер динамического диапазона (DR) 1.1.1 Дата отчёта: 2024-07-06 20:20:18 -------------------------------------------------------------------------------- Анализ: Fink / Beauty In Your Wake -------------------------------------------------------------------------------- DR Пики RMS Продолжительность трека -------------------------------------------------------------------------------- DR5 -0.20 дБ -7.71 дБ 5:28 01-What Would You Call Yourself DR7 -0.20 дБ -10.28 дБ 4:37 02-The Only Thing That Matters DR6 -0.20 дБ -9.10 дБ 5:30 03-Be Forever Like A Curse DR6 -0.20 дБ -8.91 дБ 4:05 04-It's Like You Ain't Mine No More DR6 -0.20 дБ -8.65 дБ 4:13 05-Follow You Down DR6 -0.20 дБ -9.88 дБ 5:11 06-I Don't See You As The Others Do DR5 -0.20 дБ -7.30 дБ 5:46 07-One Last Gift DR11 -0.20 дБ -14.28 дБ 3:21 08-Don't Forget To Leave Well DR11 -0.20 дБ -14.45 дБ 4:48 09-So We Find Ourselves DR5 -0.20 дБ -7.81 дБ 5:39 10-When I Turn This Corner -------------------------------------------------------------------------------- Количество треков: 10 Реальные значения DR: DR7 Частота: 48000 Гц Каналов: 2 Разрядность: 24 Битрейт: 1565 кбит/с Кодек: FLAC ================================================================================
https://youtu.be/9kVNGMylWSY

Всего файлов в раздаче: 11 
01 - What Would You Call Yourself.flac63.88 MB
02 - The Only Thing That Matters.flac53.11 MB
03 - Be Forever Like A Curse.flac63.74 MB
04 - It's Like You Ain't Mine No More.flac48.08 MB
05 - Follow You Down.flac48.72 MB
06 - I Don't See You As The Others Do.flac61.11 MB
07 - One Last Gift.flac68.60 MB
08 - Don't Forget To Leave Well.flac34.60 MB
09 - So We Find Ourselves.flac47.53 MB
10 - When I Turn This Corner.flac63.22 MB
Показать все файлы

Комментарии


Зарегистрируйтесь чтобы добавить комментарий
Торрент клиент
byTorrent - программа для загрузки торрент-файлов.

Скачать byTorrent.exe (1,5 МБ)

Скачать byTorrent.zip (0,6 МБ)

Поддержи torrent.by
российских рублей
(300 российских рублей это 4$)

Обратная связь rss

End game ©