↑↓torrent.by
Поиск
Логин:  Регистрация
Пароль:

Зубы, как у акулы / Denti da squalo (2023) BDRip 1080p | L | Синема УС

download Скачать торрент-файл   magnet Магнитная ссылка Размер: 7.83 GB Добавлен: 2024-07-07 11:00
Пиры будут получены из сети DHT
Последний сидер был замечен 2024-07-08 19:02
Информация о фильме Название: Зубы, как у акулы Оригинальное название: Denti da squalo Год выхода: 2023 Жанр: драма Режиссер: Давиде Джентиле В ролях: Тициано Меничелли, Стефано Росчи, Вирджиния Раффаэле, Клаудио Сантамария, Эдоардо Пеше, Маттео Скаттаретико, Альберто Тестоне, Роберто Фациоли, Эмануэле Дуранте О фильме: 13-летний Вальтер только что потерял отца. Когда он бесцельно бродит по побережью Римини, его внимание привлекает таинственное место - заброшенная вилла с огромным бассейном, в котором плавает... акула. Но вилла только кажется заброшенной, у нее есть смотритель, и для Вальтера начинается незабываемое приключение... Страна: Италия Студия: Goon Films, Lucky Red, Ideacinema, Rai Cinema Продолжительность: 01:43:59 Перевод: Любительский (многоголосый закадровый) | Синема УС Файл Формат: MKV Качество: BDRip 1080p Видео: AVC/H.264, 1920x804 (2.40:1), 24.000 fps, ~8518 kbps, 0.230 bit/pixel Аудио 1: AAC, 48.0 kHz, 2 ch, ~128 kbps (русский) Аудио 2: DTS, 48.0 kHz, 6 ch, ~1509 kbps, 24 bits (итальянский) Аудио 3: AC3, 48.0 kHz, 6 ch, ~640 kbps (итальянский) Субтитры: русские (Nike), итальянские (SDH) Семпл
[+] Скриншоты
[+] MediaInfo Уникальный идентификатор: 184420576165561519370022355653291888860 (0x8ABE1C6A7C4B792D8F33831EC31750DC) Полное имя: H:Новая папка (9)Denti.Da.Squalo.Зубы, как.у.акулы.2023.BDRip.1080p.x264.mkv Формат: Matroska Версия формата: Version 4 / Version 2 Размер файла: 7, 83 Гбайт Продолжительность: 1 ч. 43 м. Общий поток: 10, 8 Мбит/сек Дата кодирования: UTC 2024-07-06 05:30:51 Программа кодирования: mkvmerge v7.2.0 ('On Every Street') 64bit built on Sep 13 2014 15:52:10 Библиотека кодирования: libebml v1.3.0 + libmatroska v1.4.1 Видео Идентификатор: 1 Формат: AVC Формат/Информация: Advanced Video Codec Профиль формата: High@L4.1 Параметр CABAC формата: Да Параметр ReFrames формата: 5 кадров Идентификатор кодека: V_MPEG4/ISO/AVC Продолжительность: 1 ч. 43 м. Битрейт: 8518 Кбит/сек Ширина: 1920 пикселей Высота: 804 пикселя Соотношение сторон: 2, 40:1 Режим частоты кадров: Постоянный Частота кадров: 24, 000 кадра/сек Цветовое пространство: YUV Субдискретизация насыщенности: 4:2:0 Битовая глубина: 8 бит Тип развёртки: Прогрессивная Бит/(Пиксели*Кадры): 0.230 Размер потока: 6, 17 Гбайт (79%) Библиотека кодирования: x264 core 164 r3107 a8b68eb Настройки программы: cabac=1 / ref=5 / deblock=1:-2:-2 / analyse=0x3:0x133 / me=hex / subme=7 / psy=1 / psy_rd=1.00:0.00 / mixed_ref=1 / me_range=16 / chroma_me=1 / trellis=1 / 8x8dct=1 / cqm=0 / deadzone=21, 11 / fast_pskip=1 / chroma_qp_offset=-2 / threads=18 / lookahead_threads=3 / sliced_threads=0 / nr=0 / decimate=1 / interlaced=0 / bluray_compat=0 / constrained_intra=0 / bframes=3 / b_pyramid=2 / b_adapt=1 / b_bias=0 / direct=1 / weightb=1 / open_gop=0 / weightp=2 / keyint=240 / keyint_min=24 / scenecut=40 / intra_refresh=0 / rc_lookahead=50 / rc=2pass / mbtree=1 / bitrate=8518 / ratetol=1.0 / qcomp=0.60 / qpmin=0 / qpmax=69 / qpstep=4 / cplxblur=20.0 / qblur=0.5 / vbv_maxrate=50000 / vbv_bufsize=62500 / nal_hrd=none / filler=0 / ip_ratio=1.40 / aq=1:1.00 Язык: English Default: Да Forced: Нет Аудио #1 Идентификатор: 2 Формат: AAC Формат/Информация: Advanced Audio Codec Профиль формата: LC Идентификатор кодека: A_AAC Продолжительность: 1 ч. 43 м. Битрейт: 128 Кбит/сек Каналы: 2 канала Расположение каналов: Front: L R Частота: 48, 0 КГц Частота кадров: 46, 875 кадров/сек (1024 spf) Метод сжатия: С потерями Задержка видео: 62 мс. Размер потока: 95, 6 Мбайт (1%) Язык: Russian Default: Да Forced: Нет Аудио #2 Идентификатор: 3 Формат: DTS Формат/Информация: Digital Theater Systems Режим: 16 Параметр Endianness формата: Big Идентификатор кодека: A_DTS Продолжительность: 1 ч. 43 м. Вид битрейта: Постоянный Битрейт: 1509 Кбит/сек Каналы: 6 каналов Расположение каналов: Front: L C R, Side: L R, LFE Частота: 48, 0 КГц Частота кадров: 93, 750 кадра/сек (512 spf) Битовая глубина: 24 бит Метод сжатия: С потерями Размер потока: 1, 10 Гбайт (14%) Язык: Italian Default: Нет Forced: Нет Аудио #3 Идентификатор: 4 Формат: AC-3 Формат/Информация: Audio Coding 3 Расширение режима: CM (complete main) Параметр Endianness формата: Big Идентификатор кодека: A_AC3 Продолжительность: 1 ч. 43 м. Вид битрейта: Постоянный Битрейт: 640 Кбит/сек Каналы: 6 каналов Расположение каналов: Front: L C R, Side: L R, LFE Частота: 48, 0 КГц Частота кадров: 31, 250 кадров/сек (1536 spf) Битовая глубина: 16 бит Метод сжатия: С потерями Размер потока: 476 Мбайт (6%) Язык: Italian Default: Нет Forced: Нет Текст #1 Идентификатор: 5 Формат: UTF-8 Идентификатор кодека: S_TEXT/UTF8 Идентификатор кодека/Информация: UTF-8 Plain Text Продолжительность: 1 ч. 38 м. Битрейт: 44 бит/сек Count of elements: 776 Размер потока: 32, 2 Кбайт (0%) Язык: Russian Default: Нет Forced: Нет Текст #2 Идентификатор: 6 Формат: UTF-8 Идентификатор кодека: S_TEXT/UTF8 Идентификатор кодека/Информация: UTF-8 Plain Text Продолжительность: 1 ч. 39 м. Битрейт: 36 бит/сек Count of elements: 901 Размер потока: 26, 8 Кбайт (0%) Язык: Italian Default: Нет Forced: Нет Меню 00:00:00.000: en:Capitolo 01 00:08:16.000: en:Capitolo 02 00:16:52.458: en:Capitolo 03 00:26:12.000: en:Capitolo 04 00:32:44.958: en:Capitolo 05 00:41:31.292: en:Capitolo 06 00:50:15.833: en:Capitolo 07 01:01:30.958: en:Capitolo 08 01:11:18.583: en:Capitolo 09 01:16:50.792: en:Capitolo 10 01:25:09.167: en:Capitolo 11 01:30:38.167: en:Capitolo 12

Всего файлов в раздаче: 1 
Denti.Da.Squalo.Зубы,как.у.акулы.2023.BDRip.1080p.x264.mkv7.83 GB

Комментарии


Зарегистрируйтесь чтобы добавить комментарий
Торрент клиент
byTorrent - программа для загрузки торрент-файлов.

Скачать byTorrent.exe (1,5 МБ)

Скачать byTorrent.zip (0,6 МБ)

Поддержи torrent.by
российских рублей
(300 российских рублей это 4$)

Обратная связь rss

End game ©