↑↓torrent.by
Поиск
Логин:  Регистрация
Пароль:

Расплата / Цена / The Cost (2022) BDRip-AVC | D

download Скачать торрент-файл   magnet Магнитная ссылка Размер: 1.46 GB Добавлен: il68k 2024-07-07 12:06
Пиры будут получены из сети DHT
Последний сидер был замечен 2024-07-22 20:39
Информация о фильме Название: Расплата Оригинальное название: The Cost Год выхода: 2022 Жанр: триллер, драма Режиссер: Мэттью Холмс В ролях: Джордан Фрайзер-Трамбл, Дэймон Хантер, Кевин Ди, Клэйтон Уотсон, Кейт Спайкер, Надя Фрагнито, Марк Редпаф, Ники Пастор, Сотирис Целиос, Адам Вилсон О фильме: Троя, осуждённого за изнасилование и убийство девушки, внезапно освобождают из тюрьмы раньше положенного срока. Не согласные с таким решением муж и брат погибшей девушки решают свершить своё правосудие и организовывают похищение убийцы. Страна: Австралия Студия: RLC Motion Picture Entertainment, Two Tone Pictures, Bronte Pictures, La Rosa Productions Продолжительность: 01:51:10 Перевод: Профессиональный (дублированный) | Pride Production Файл Кодек: Н.264 Качество: BDRip-AVC Видео: MPEG-4 AVC, 1498 Kbps, 1024x428 (2.40:1), 24.000 fps, 0.142 bit/pixel, High@L4.1 Звук: 48 kHz, AC3 Dolby Digital, 3/2 (L, C, R, l, r) + LFE ch, ~384 kbps Субтитры: английские (full, SDH) Семпл
[+] Скриншоты
[+] MediaInfo raw : 1024x428p 1:1 @ 24/1 fps (cfr) x264 : using SAR=1/1 x264 : using cpu capabilities: MMX2 SSE2Fast SSSE3 SSE4.2 AVX FMA3 BMI2 AVX2 x264 : profile High, level 4.1, 4:2:0, 8-bit x264 : frame I:1188 Avg QP:16.22 size: 53212 x264 : frame P:40430 Avg QP:19.47 size: 16779 x264 : frame B:118484 Avg QP:21.25 size: 4285 x264 : consecutive B-frames: 3.4% 4.9% 14.5% 27.6% 14.3% 28.4% 2.7% 0.6% 0.7% 0.2% 0.3% 0.7% 1.6% x264 : mb I I16..4: 8.4% 72.2% 19.4% x264 : mb P I16..4: 3.7% 16.9% 2.2% P16..4: 37.7% 22.5% 11.3% 0.0% 0.0% skip: 5.7% x264 : mb B I16..4: 0.5% 1.4% 0.2% B16..8: 34.1% 10.1% 2.7% direct: 5.0% skip:46.1% L0:40.5% L1:44.4% BI:15.1% x264 : 8x8 transform intra:72.8% inter:64.3% x264 : direct mvs spatial:98.7% temporal:1.3% x264 : coded y, uvDC, uvAC intra: 66.5% 79.6% 56.3% inter: 17.0% 19.0% 8.3% x264 : i16 v, h, dc, p: 44% 20% 9% 27% x264 : i8 v, h, dc, ddl, ddr, vr, hd, vl, hu: 15% 13% 15% 7% 9% 10% 10% 10% 11% x264 : i4 v, h, dc, ddl, ddr, vr, hd, vl, hu: 17% 13% 9% 7% 12% 12% 11% 9% 10% x264 : i8c dc, h, v, p: 46% 23% 18% 13% x264 : Weighted P-Frames: Y:4.8% UV:2.3% x264 : ref P L0: 57.2% 14.0% 11.7% 3.8% 3.0% 2.1% 1.9% 1.1% 1.0% 0.8% 0.8% 0.7% 0.7% 0.6% 0.7% 0.1% x264 : ref B L0: 84.3% 7.3% 2.7% 1.3% 1.0% 0.8% 0.6% 0.4% 0.4% 0.3% 0.3% 0.3% 0.2% 0.1% x264 : ref B L1: 96.7% 3.3% x264 : kb/s:1498.13 x264 : encoded 160102 frames, 16.25 fps, 1498.13 kb/s ============================================================== General Unique ID: 164749882927355459637518957292989674323 (0x7BF1AC5C7F817C3EECC0615B15F37353) Complete name: D:\Rasplata.2022.BDRip.AVC.mkv Format: Matroska Format version: Version 4 File size: 1.46 GiB Duration: 1 h 51 min Overall bit rate: 1 884 kb/s Frame rate: 24.000 FPS Movie name: The Cost (2022) BDRip-AVC _ vitolinform Encoded date: 2024-07-07 08:17:53 UTC Writing application: mkvmerge v85.0 ('Shame For You') 64-bit Writing library: libebml v1.4.5 + libmatroska v1.7.1 Attachments: poster.jpg / log.log Video ID: 1 Format: AVC Format/Info: Advanced Video Codec Format profile: High@L4.1 Format settings: CABAC / 15 Ref Frames Format settings, CABAC: Yes Format settings, Reference frames: 15 frames Codec ID: V_MPEG4/ISO/AVC Duration: 1 h 51 min Bit rate: 1 498 kb/s Width: 1 024 pixels Height: 428 pixels Display aspect ratio: 2.39:1 Frame rate mode: Constant Frame rate: 24.000 FPS Color space: YUV Chroma subsampling: 4:2:0 Bit depth: 8 bits Scan type: Progressive Bits/(Pixel*Frame): 0.142 Stream size: 1.16 GiB (80%) Title: Расплата / The Cost (2022) Writing library: x264 core 164 r3182 be4f020 Encoding settings: cabac=1 / ref=15 / deblock=1:-3:-3 / analyse=0x3:0x113 / me=umh / subme=10 / psy=1 / psy_rd=1.00:0.05 / mixed_ref=1 / me_range=32 / chroma_me=1 / trellis=2 / 8x8dct=1 / cqm=0 / deadzone=21, 11 / fast_pskip=0 / chroma_qp_offset=-3 / threads=12 / lookahead_threads=3 / sliced_threads=0 / nr=0 / decimate=0 / interlaced=0 / bluray_compat=0 / constrained_intra=0 / bframes=12 / b_pyramid=2 / b_adapt=2 / b_bias=0 / direct=3 / weightb=1 / open_gop=0 / weightp=2 / keyint=240 / keyint_min=24 / scenecut=40 / intra_refresh=0 / rc_lookahead=60 / rc=2pass / mbtree=0 / bitrate=1498 / ratetol=1.0 / qcomp=0.60 / qpmin=0 / qpmax=69 / qpstep=4 / cplxblur=20.0 / qblur=0.5 / vbv_maxrate=50000 / vbv_bufsize=62500 / nal_hrd=none / filler=0 / ip_ratio=1.40 / pb_ratio=1.30 / aq=1:1.00 Language: English Default: Yes Forced: No Color range: Limited Color primaries: BT.709 Transfer characteristics: BT.709 Matrix coefficients: BT.709 Audio ID: 2 Format: AC-3 Format/Info: Audio Coding 3 Commercial name: Dolby Digital Codec ID: A_AC3 Duration: 1 h 51 min Bit rate mode: Constant Bit rate: 384 kb/s Channel(s): 6 channels Channel layout: L R C LFE Ls Rs Sampling rate: 48.0 kHz Frame rate: 31.250 FPS (1536 SPF) Compression mode: Lossy Stream size: 305 MiB (20%) Title: Dub | Pride Production Language: Russian Service kind: Complete Main Default: Yes Forced: No Dialog Normalization: -31 dB cmixlev: -4.5 dB surmixlev: -6 dB dialnorm_Average: -31 dB dialnorm_Minimum: -31 dB dialnorm_Maximum: -31 dB Text #1 ID: 3 Format: UTF-8 Codec ID: S_TEXT/UTF8 Codec ID/Info: UTF-8 Plain Text Duration: 1 h 43 min Bit rate: 31 b/s Frame rate: 0.156 FPS Count of elements: 970 Stream size: 24.0 KiB (0%) Title: Full Language: English Default: No Forced: No Text #2 ID: 4 Format: UTF-8 Codec ID: S_TEXT/UTF8 Codec ID/Info: UTF-8 Plain Text Duration: 1 h 47 min Bit rate: 35 b/s Frame rate: 0.182 FPS Count of elements: 1182 Stream size: 28.1 KiB (0%) Title: SDH Language: English Default: No Forced: No Menu 00:00:00.000: en:Chapter 01 00:09:27.958: en:Chapter 02 00:19:14.125: en:Chapter 03 00:30:58.000: en:Chapter 04 00:41:22.333: en:Chapter 05 00:52:07.750: en:Chapter 06 01:00:37.000: en:Chapter 07 01:10:07.292: en:Chapter 08 01:24:26.458: en:Chapter 09 01:32:43.917: en:Chapter 10 01:42:24.000: en:Chapter 11 01:47:46.000: en:End Credits
Rip by vitolinform

Всего файлов в раздаче: 1 
Rasplata.2022.BDRip.AVC.mkv1.46 GB

Похожие раздачи по запросу - Расплата
2024-07-13 magnet Расплата / Цена / The Cost (2022) BDRip 1080p от Generalfilm | D 7.45 GB ↑ 0 ↓ 0
2024-07-06 magnet Расплата / Цена / The Cost (2022) BDRip-AVC от DoMiNo & селезень | D | Pride Production 1.45 GB ↑ 0 ↓ 0
2024-07-06 magnet Расплата / Цена / The Cost (2022) BDRip 720p от DoMiNo & селезень | D | Pride Production 4.39 GB ↑ 0 ↓ 0
2024-07-06 magnet Расплата / Цена / The Cost (2022) BDRip от New-Team | D 1.46 GB ↑ 0 ↓ 0
2024-07-05 magnet Расплата / Цена / The Cost (2022) WEB-DL 1080p | D 4.76 GB ↑ 0 ↓ 0
2024-06-29 magnet Расплата [S01] (2024) WEB-DLRip от Generalfilm | КПК 1.37 GB ↑ 0 ↓ 0
2024-06-27 magnet Расплата [S01] (2024) WEB-DLRip-AVC от Files-x 4.63 GB ↑ 0 ↓ 0

Комментарии


Зарегистрируйтесь чтобы добавить комментарий
Торрент клиент
byTorrent - программа для загрузки торрент-файлов.

Скачать byTorrent.exe (1,5 МБ)

Скачать byTorrent.zip (0,6 МБ)

Поддержи torrent.by
российских рублей
(300 российских рублей это 4$)

Обратная связь rss

End game ©