↑↓torrent.by
Поиск
Логин:  Регистрация
Пароль:

Kissin Dynamite - Back With A Bang [24-bit Hi-Res] (2024) FLAC

download Скачать торрент-файл   magnet Магнитная ссылка Размер: 588.29 MB Добавлен: 2024-07-07 17:00
Пиры будут получены из сети DHT
Последний сидер был замечен 2024-07-10 19:04
Название: Back With A Bang Исполнитель: Kissin Dynamite Год: 2024 Жанр: Metal, Hard-Rock Издатель (лейбл): Napalm Records Handels GmbH Продолжительность: 00:46:18 Формат/Кодек: FLAC Тип рипа: Tracks Битрейт аудио: Lossless Разрядность: 24 Bit/44,1 kHz
[+] Трек-лист 01. Back With A Bang (00:03:34) 02. My Monster (00:04:07) 03. Raise Your Glass (00:03:38) 04. Queen Of The Night (00:03:14) 05. The Devil Is A Woman (00:03:34) 06. The Best Is Yet To Come (00:03:57) 07. I Do It My Way (00:04:43) 08. More Is More (00:03:41) 09. Iconic (00:03:54) 10. Learn To Fly (00:03:48) 11. When The Lights Go Out (00:04:13) 12. Not A Wise Man (00:03:55)
[+] DRM foobar2000 1.5.5 / Замер динамического диапазона (DR) 1.1.1 ------------------------------------------------------------------------------- Анализ: Kissin Dynamite / Back With A Bang -------------------------------------------------------------------------------- DR Пики RMS Продолжительность трека -------------------------------------------------------------------------------- DR5 -0.11 дБ -5.63 дБ 3:34 01-Back With A Bang DR5 -0.11 дБ -5.75 дБ 4:07 02-My Monster DR5 -0.11 дБ -6.43 дБ 3:38 03-Raise Your Glass DR5 -0.11 дБ -5.35 дБ 3:14 04-Queen Of The Night DR5 -0.11 дБ -6.11 дБ 3:34 05-The Devil Is A Woman DR5 -0.11 дБ -6.41 дБ 3:57 06-The Best Is Yet To Come DR5 -0.11 дБ -6.57 дБ 4:43 07-I Do It My Way DR5 -0.11 дБ -6.03 дБ 3:41 08-More Is More DR5 -0.11 дБ -6.61 дБ 3:54 09-Iconic DR5 -0.11 дБ -5.99 дБ 3:48 10-Learn To Fly DR5 -0.11 дБ -5.90 дБ 4:13 11-When The Lights Go Out DR6 -0.11 дБ -7.38 дБ 3:55 12-Not A Wise Man -------------------------------------------------------------------------------- Количество треков: 12 Реальные значения DR: DR5 Частота: 44100 Гц Каналов: 2 Разрядность: 24 Битрейт: 1754 кбит/с Кодек: FLAC ================================================================================
Время раздачи: 24/7 (минимум до появления первых 3-5 скачавших, на раздачи не возвращаюсь) Первое правило участника файлообмена: "Скачал сам - дай скачать другому!"

Всего файлов в раздаче: 13 
01 Back With A Bang.flac44.87 MB
02 My Monster.flac52.30 MB
03 Raise Your Glass.flac46.30 MB
04 Queen Of The Night.flac41.88 MB
05 The Devil Is A Woman.flac44.78 MB
06 The Best Is Yet To Come.flac49.88 MB
07 I Do It My Way.flac59.52 MB
08 More Is More.flac46.93 MB
09 Iconic.flac49.40 MB
10 Learn To Fly.flac49.20 MB
Показать все файлы

Комментарии


Зарегистрируйтесь чтобы добавить комментарий
Торрент клиент
byTorrent - программа для загрузки торрент-файлов.

Скачать byTorrent.exe (1,5 МБ)

Скачать byTorrent.zip (0,6 МБ)

Поддержи torrent.by
российских рублей
(300 российских рублей это 4$)

Обратная связь rss

End game ©